Hoşgeldin, Ziyaretçi: Giriş Yap Üye Ol


Konuyu Oyla:
  • Derecelendirme: 0/5 - 0 oy
  • 1
  • 2
  • 3
  • 4
  • 5
Title: The Wave (2019) Türkçe Dublaj BLURAY 1080P indir
Gösterim Stili
#1
Filmin Yayınlanma Tarihi: 2019 

vizyon tarihi


07 Aralık 2019

imdb puanı


6,0 / 1,000

süre


90 dakika

Editör Puanı


5,9 / 10

Video Format: Mkv


Matroska (.MKV)

Ses Kodek: AC3


Audio Coding 3 (AC3)

sürüm


x264 | 1080P | WEB-DL

Boyutlar


1,37



 The Wave



Dünya algısını değiştirebilecek kadar güçlü bir doz hayal edin. Frank bunu sevmiş olmalı ki, sürekli olarak bu dozdan alır ve geceleri tuhaflaşır, halüsyoslanlar görür ve bunlar sanki gerçek düzeydedir.

The Wave (2019) (2019) Filmi Imdb'den 1,000 kişi tarafından oylandı ve 6,0 puan aldı. Bu film için editör puanı 5,9 olarak belirlendi. İyi Seyirler!

Teknik Detaylar

Kod:
General
Unique ID                                : 289701470796575949996951922775106194814 (0xD9F27947F170C0ABFE6C98D376FF0D7E)
Complete name                            : /root/Desktop/5/The.Wave.2019.1080p.WEB-DL.x264.TR.Filmbol.mkv
Format                                   : Matroska
Format version                           : Version 4 / Version 2
File size                                : 1.37 GiB
Duration                                 : 1h 27mn
Overall bit rate                         : 2 243 Kbps
Movie name                               : The Wave (2019) - Filmbol.org
Encoded date                             : UTC 2020-02-14 08:03:09
Writing application                      : mkvmerge v35.0.0 ('All The Love In The World') 64-bit
Writing library                          : libebml v1.3.9 + libmatroska v1.5.2

Video
ID                                       : 1
Format                                   : AVC
Format/Info                              : Advanced Video Codec
Format profile                           : Main@L4
Format settings, CABAC                   : Yes
Format settings, ReFrames                : 2 frames
Codec ID                                 : V_MPEG4/ISO/AVC
Duration                                 : 1h 27mn
Bit rate                                 : 2 049 Kbps
Width                                    : 1 920 pixels
Height                                   : 800 pixels
Display aspect ratio                     : 2.40:1
Frame rate mode                          : Constant
Frame rate                               : 23.976 (24000/1001) fps
Color space                              : YUV
Chroma subsampling                       : 4:2:0
Bit depth                                : 8 bits
Scan type                                : Progressive
Bits/(Pixel*Frame)                       : 0.056
Stream size                              : 1.25 GiB (91%)
Title                                    : 1080P - Filmbol.org
Default                                  : Yes
Forced                                   : No

Audio
ID                                       : 2
Format                                   : AC-3
Format/Info                              : Audio Coding 3
Mode extension                           : CM (complete main)
Format settings, Endianness              : Big
Codec ID                                 : A_AC3
Duration                                 : 1h 27mn
Bit rate mode                            : Constant
Bit rate                                 : 192 Kbps
Channel(s)                               : 2 channels
Channel positions                        : Front: L R
Sampling rate                            : 48.0 KHz
Frame rate                               : 31.250 fps (1536 spf)
Compression mode                         : Lossy
Stream size                              : 120 MiB (9%)
Title                                    : Türkçe - Filmbol.org
Language                                 : Turkish
Default                                  : Yes
Forced                                   : No

Film Detayları


 The Wave

 The Wave

 The Wave


Film Fragmanı


Film Detayları

Uptobox ile indir

1Fichier ile indir

Mediafire linki şuan da gizli. Kullanıma açmak için konuya yorum yapın ve ardından sayfayı yenileyin. Ayrıca bu linki açtığınızda reklamsız olarak erişebileceğinizi unutmayın.

Mediafire

 
Cevapla
  


Konu ile Alakalı Benzer Konular
Konular Yazar Yorumlar Okunma Son Yorum
Filmin Yayınlanma Tarihi: 2005 Serenity: Gizemli Yolculuk (Serenity) Türkçe Dublaj BLURAY 1080P indir BroserBros 2 85 18-02-2020, Saat: 01:44
Son Yorum: emre_3434
Filmin Yayınlanma Tarihi: 2011 Kaptan Amerika: İlk Yenilmez (The First Avenger) (2011) Türkçe Dublaj 1080P İndir BroserBros 3 2,956 16-02-2020, Saat: 13:04
Son Yorum: Omeryuksel256
Filmin Yayınlanma Tarihi: 2015 Marslı (The Martian) (2015) Türkçe Dublaj Bluray 1080P İndir BroserBros 17 6,217 16-02-2020, Saat: 11:47
Son Yorum: murassai
Filmin Yayınlanma Tarihi: 2015 Ex Machina (2015) Türkçe Dublaj 1080P İndir BroserBros 10 2,293 11-02-2020, Saat: 21:39
Son Yorum: tarik55
Filmin Yayınlanma Tarihi: 2019 Yıldızlara Doğru (Ad Astra) Türkçe Dublaj BLURAY 1080P İndir BroserBros 12 386 11-02-2020, Saat: 20:50
Son Yorum: kubikanber

Hızlı Menü:


Browsing: 1 Ziyaretçi