Filmbol Forum Film İndir 1080P v The Wave (2019) Türkçe Dublaj BLURAY 1080P indir
Moderatör Alımları Başladı! Başvuru yapmak için tıklayın.
Filmbol Premium'da %50'e varan indirim fırsatı!
The Wave (2019) Türkçe Dublaj BLURAY 1080P indir
BroserBros
The Wave (2019) Türkçe Dublaj BLURAY 1080P indir
0
178
  • Derecelendirme: 0/5 - 0 oy
  • 1
  • 2
  • 3
  • 4
  • 5
Konuyu Okuyanlar:1 Ziyaretçi
Şuan Online!
Filmin Yayınlanma Tarihi: 2019 
Şuan Online!
BroserBros Kurucu Admin
*******
Admin

Vizyon Tarihi


07 Aralık 2019

imdb puanı


6,0 / 1,000

süre


90 dakika

Editör Puanı


5,9 / 10

Video Format: Mkv


Matroska (.MKV)

Ses Kodek: AC3


Audio Coding 3 (AC3)

sürüm


x264 | 1080P | WEB-DL

Boyutlar


1,37



 The Wave



Dünya algısını değiştirebilecek kadar güçlü bir doz hayal edin. Frank bunu sevmiş olmalı ki, sürekli olarak bu dozdan alır ve geceleri tuhaflaşır, halüsyoslanlar görür ve bunlar sanki gerçek düzeydedir.

The Wave (2019) (2019) Filmi Imdb'den 1,000 kişi tarafından oylandı ve 6,0 puan aldı. Bu film için editör puanı 5,9 olarak belirlendi. İyi Seyirler!

Teknik Detaylar

Kod :
General
Unique ID                                : 289701470796575949996951922775106194814 (0xD9F27947F170C0ABFE6C98D376FF0D7E)
Complete name                            : /root/Desktop/5/The.Wave.2019.1080p.WEB-DL.x264.TR.Filmbol.mkv
Format                                   : Matroska
Format version                           : Version 4 / Version 2
File size                                : 1.37 GiB
Duration                                 : 1h 27mn
Overall bit rate                         : 2 243 Kbps
Movie name                               : The Wave (2019) - Filmbol.org
Encoded date                             : UTC 2020-02-14 08:03:09
Writing application                      : mkvmerge v35.0.0 ('All The Love In The World') 64-bit
Writing library                          : libebml v1.3.9 + libmatroska v1.5.2

Video
ID                                       : 1
Format                                   : AVC
Format/Info                              : Advanced Video Codec
Format profile                           : Main@L4
Format settings, CABAC                   : Yes
Format settings, ReFrames                : 2 frames
Codec ID                                 : V_MPEG4/ISO/AVC
Duration                                 : 1h 27mn
Bit rate                                 : 2 049 Kbps
Width                                    : 1 920 pixels
Height                                   : 800 pixels
Display aspect ratio                     : 2.40:1
Frame rate mode                          : Constant
Frame rate                               : 23.976 (24000/1001) fps
Color space                              : YUV
Chroma subsampling                       : 4:2:0
Bit depth                                : 8 bits
Scan type                                : Progressive
Bits/(Pixel*Frame)                       : 0.056
Stream size                              : 1.25 GiB (91%)
Title                                    : 1080P - Filmbol.org
Default                                  : Yes
Forced                                   : No

Audio
ID                                       : 2
Format                                   : AC-3
Format/Info                              : Audio Coding 3
Mode extension                           : CM (complete main)
Format settings, Endianness              : Big
Codec ID                                 : A_AC3
Duration                                 : 1h 27mn
Bit rate mode                            : Constant
Bit rate                                 : 192 Kbps
Channel(s)                               : 2 channels
Channel positions                        : Front: L R
Sampling rate                            : 48.0 KHz
Frame rate                               : 31.250 fps (1536 spf)
Compression mode                         : Lossy
Stream size                              : 120 MiB (9%)
Title                                    : Türkçe - Filmbol.org
Language                                 : Turkish
Default                                  : Yes
Forced                                   : No

Film Detayları


 The Wave

 The Wave

 The Wave


Film Fragmanı


Film Detayları

Uptobox ile indir

1Fichier ile indir

1Fichier'den İndiremiyor musun? Tıklayın!


MediaFire ile indir



Konu ile Alakalı Benzer Konular
Konular Yazar Yorumlar Okunma Son Yorum
Filmin Yayınlanma Tarihi: 2018
Venom: Zehirli Öfke (2018) Türkçe Dublaj Bluray m1080P İndir DRMOV 42 3,920 26-09-2020, Saat: 21:58
Son Yorum: egzantirik7
Filmin Yayınlanma Tarihi: 2011
Harry Potter ve Ölüm Yadigarları: Bölüm 2 (2011) Türkçe Dublaj BLURAY m1080P İndi BroserBros 16 1,338 25-09-2020, Saat: 22:38
Son Yorum: uvenix
Filmin Yayınlanma Tarihi: 2010
Harry Potter ve Ölüm Yadigarları: Bölüm 1 (2010) Türkçe Dublaj BLURAY m1080P İndir BroserBros 13 1,042 22-09-2020, Saat: 21:21
Son Yorum: uvenix
Filmin Yayınlanma Tarihi: 2018
Fındık Kıran ve Dört Diyar (The Nutcracker...) Türkçe Dublaj BLURAY m1080P İndir BroserBros 11 861 20-09-2020, Saat: 20:49
Son Yorum: lalaland
Filmin Yayınlanma Tarihi: 2018
Mogli: Orman Çocuğu (Mowgli) Türkçe Dublaj BLURAY 1080P İndir BroserBros 10 845 19-09-2020, Saat: 13:11
Son Yorum: Rocklion17

Hızlı Menü: