Filmbol Forum Film İndir BRRip XviD v The Two Popes (2019) Türkçe Dublaj Brrip Xvid İndir
Mega linklerinin şikayet edilmemesi için global erişime kapatıp sadece yorum yapanlara açıyoruz. Bu linkleri gizleme işlemini mecburen yapıyoruz ve yorum yapmanızın siteye değil size faydası vardır. Teşekürler yazmayı çok görüp, Random/Spam mesajlar atarak Mega linklerini açmaya çalışan kullanıcılara önce süresiz ban, devam ederse IP ban atacağız.
Filmbol'da moderatör olmak ister misiniz? Bizimle iletişime geçmek için tıklayın!
The Two Popes (2019) Türkçe Dublaj Brrip Xvid İndir
BroserBros
The Two Popes (2019) Türkçe Dublaj Brrip Xvid İndir
2
346
  • Derecelendirme: 0/5 - 0 oy
  • 1
  • 2
  • 3
  • 4
  • 5
Konuyu Okuyanlar:1 Ziyaretçi
Şuan Online!
Filmin Yayınlanma Tarihi: 2019 
WWW
Şuan Online!
BroserBros Kurucu Admin
*******
Admin








The Two Popes




Teknik Detaylar


Kod :
General
Complete name                            : /root/Desktop/9/The.Two.Popes.2019.WEBRip.XviD.TR.Filmbol.avi
Format                                   : AVI
Format/Info                              : Audio Video Interleave
File size                                : 1.66 GiB
Duration                                 : 2h 5mn
Overall bit rate                         : 1 888 Kbps

Video
ID                                       : 0
Format                                   : MPEG-4 Visual
Format profile                           : [email protected]
Format settings, BVOP                    : No
Format settings, QPel                    : No
Format settings, GMC                     : No warppoints
Format settings, Matrix                  : Default (H.263)
Codec ID                                 : XVID
Codec ID/Hint                            : XviD
Duration                                 : 2h 5mn
Bit rate                                 : 1 747 Kbps
Width                                    : 720 pixels
Height                                   : 388 pixels
Display aspect ratio                     : 1.85:1
Frame rate                               : 24.000 fps
Color space                              : YUV
Chroma subsampling                       : 4:2:0
Bit depth                                : 8 bits
Scan type                                : Progressive
Compression mode                         : Lossy
Bits/(Pixel*Frame)                       : 0.261
Stream size                              : 1.54 GiB (93%)
Writing library                          : Lavc58.1.100

Audio
ID                                       : 1
Format                                   : MPEG Audio
Format version                           : Version 1
Format profile                           : Layer 3
Mode                                     : Joint stereo
Mode extension                           : MS Stereo
Codec ID                                 : 55
Codec ID/Hint                            : MP3
Duration                                 : 2h 5mn
Bit rate mode                            : Constant
Bit rate                                 : 128 Kbps
Channel(s)                               : 2 channels
Sampling rate                            : 48.0 KHz
Compression mode                         : Lossy
Stream size                              : 115 MiB (7%)
Alignment                                : Aligned on interleaves
Interleave, duration                     : 24 ms (0.58 video frame)

Film Detayları


The Two Popes

The Two Popes

The Two Popes


Film Fragmanı


Film Detayları

Brrip İndir



Uptobox ile indir

1Fichier ile indir

1Fichier'den İndiremiyor musun? Tıklayın!


Mega linki şuan da gizli. Kullanıma açmak için konuya yorum yapın ve ardından sayfayı yenileyin.

Mega


MediaFire ile indir

Şuan Offine!
Şuan Offine!
simurg26 Uzman Üye
**
Uzman Üye

  • Konular0
  • Mesajlar8
  • Rep puanı 0
teşekkürler
Şuan Offine!
Şuan Offine!
enesus Yeni Üye
*
Üye

  • Konular0
  • Mesajlar2
  • Rep puanı 0
teşekkürler harika Smile


Konu ile Alakalı Benzer Konular
Konular Yazar Yorumlar Okunma Son Yorum
Filmin Yayınlanma Tarihi: 2019
Bir Köpeğin Fantastik Hikayesi (L'extraordinaire voyage de Marona) - 2019 - TR - BRRip XviD | tt6785292 TheSteeL 0 4 34 dakika önce
Son Yorum: TheSteeL
Filmin Yayınlanma Tarihi: 2019
The Jesus Rolls: Quintana Dönüyor (The Jesus Rolls) - 2019 - TR - BRRip XviD | tt5974030 TheSteeL 0 5 49 dakika önce
Son Yorum: TheSteeL
Filmin Yayınlanma Tarihi: 2020
Paramedik (El practicante) - 2020 - TR - BRRip XviD | tt11127690 TheSteeL 1 41 2 saat önce
Son Yorum: Furkan61
Filmin Yayınlanma Tarihi: 2018
Dehşetin Yüzü (The Nun) Türkçe Dublaj Brrip Xvid İndir BroserBros 4 425 6 saat önce
Son Yorum: Furkan61
Filmin Yayınlanma Tarihi: 2018
Bumblebee Türkçe Dublaj Brrip Xvid İndir BroserBros 3 633 7 saat önce
Son Yorum: Furkan61

Hızlı Menü: