Hoşgeldin, Ziyaretçi: Giriş Yap Üye Ol


Konuyu Oyla:
  • Derecelendirme: 0/5 - 0 oy
  • 1
  • 2
  • 3
  • 4
  • 5
Title: The Silence (2019) Türkçe Dublaj Brrip Xvid İndir
Gösterim Stili
#1
Filmin Yayınlanma Tarihi: 2019 

indirme türü


Bulut + Premium

vizyon tarihi


10 Nisan 2019

Boyutlar


1,21

diller


[TR]

altyazilar


KISIM [Eklenebilir]

Video Format: Avi


Audio Video Interleave (.AVI)

Video Detay


MPEG-4, 1778 Kbps, 1,13 GB

imdb puanı


5,2 / 10,0 / 25,000

süre


90 dakika

Ses Kodek: MP3


MPEG-1 Audio Layer III (MP3)

Ses Detay


128 Kbps, 2 Kanal, 88 Mb

Editör Puanı


5,7

Genislik Yukseklik


720-304

sürüm


h263 | WEBRip Xvid


Film Detayları

Dünya, insanları avlayan yaratıklarla dolup taşmıştır, bu yaratıklar ses'i duyarlar ve insanları duydukları bu ses ile yerlerini belirleyip saldırıya geçerler. 13 yaşında işitme duygusunu kaybeden Ally Andrews ve ailesi bir sığınağa saklanırlar.

The Silence (2019) Filmi Imdb'den 25,000 kişi tarafından oylandı ve 5,2 puan aldı. Bu film için editör puanı 5,7 olarak belirlendi. İyi Seyirler!


Teknik Detaylar


Kod:
General
Complete name                            : The.Silence.2019.WEBRip.XviD.TR.Filmbol.avi
Format                                   : AVI
Format/Info                              : Audio Video Interleave
File size                                : 1.22 GiB
Duration                                 : 1h 30mn
Overall bit rate                         : 1 919 Kbps

Video
ID                                       : 0
Format                                   : MPEG-4 Visual
Format profile                           : Simple@L5
Format settings, BVOP                    : No
Format settings, QPel                    : No
Format settings, GMC                     : No warppoints
Format settings, Matrix                  : Default (H.263)
Codec ID                                 : XVID
Codec ID/Hint                            : XviD
Duration                                 : 1h 30mn
Bit rate                                 : 1 778 Kbps
Width                                    : 720 pixels
Height                                   : 304 pixels
Display aspect ratio                     : 2.40:1
Frame rate                               : 23.976 fps
Color space                              : YUV
Chroma subsampling                       : 4:2:0
Bit depth                                : 8 bits
Scan type                                : Progressive
Compression mode                         : Lossy
Bits/(Pixel*Frame)                       : 0.339
Stream size                              : 1.13 GiB (93%)
Writing library                          : Lavc58.1.100

Audio
ID                                       : 1
Format                                   : MPEG Audio
Format version                           : Version 1
Format profile                           : Layer 3
Mode                                     : Joint stereo
Mode extension                           : MS Stereo
Codec ID                                 : 55
Codec ID/Hint                            : MP3
Duration                                 : 1h 30mn
Bit rate mode                            : Constant
Bit rate                                 : 128 Kbps
Channel(s)                               : 2 channels
Sampling rate                            : 48.0 KHz
Compression mode                         : Lossy
Stream size                              : 83.2 MiB (7%)
Alignment                                : Aligned on interleaves
Interleave, duration                     : 24 ms (0.58 video frame)


Film Detayları


The Silence Turkce Dublaj indir

The Silence Turkce Dublaj indir

The Silence Turkce Dublaj indir

The Silence Turkce Dublaj indir

The Silence Turkce Dublaj indir

Film Fragmanı


Film Detayları

Brrip İndir


Uptobox ile indir

LetsUpload ile indir

Mega Upload ile indir


Mega linki şuan da gizli. Kullanıma açmak için konuya yorum yapın ve ardından sayfayı yenileyin. Ayrıca bu linki açtığınızda reklamsız olarak erişebileceğinizi unutmayın.

Mega


eU14
 
Cevapla
#2
teşekkürler...
 
Cevapla
#3
Teşekkürler
 
Cevapla
#4
Teşekkürler...
 
Cevapla
  


Konu ile Alakalı Benzer Konular
Konular Yazar Yorumlar Okunma Son Yorum
Filmin Yayınlanma Tarihi: 2014 Ölüm Alfabesi (Ouija) Türkçe Dublaj BRRip XviD indir BroserBros 2 105 , Saat: 17:52
Son Yorum: Nyx Ulric
Filmin Yayınlanma Tarihi: 2019 Davetsiz Misafir (The Intruder) Türkçe Dublaj BRRip XviD indir BroserBros 0 38 25-02-2020, Saat: 15:53
Son Yorum: BroserBros
Filmin Yayınlanma Tarihi: 2017 Kaçış Odası (Escape Room) Türkçe Dublaj BRRip XviD indir BroserBros 0 47 24-02-2020, Saat: 21:25
Son Yorum: BroserBros
Filmin Yayınlanma Tarihi: 2016 Ölüm Alfabesi: Kötülüğün Başlangıcı Türkçe Dublaj Brrip-Xvid İndir BroserBros 4 1,392 23-02-2020, Saat: 20:23
Son Yorum: tayfun3278
Filmin Yayınlanma Tarihi: 2019 İstilacılar (Snatchers) Türkçe Dublaj BRRip XviD indir BroserBros 0 72 15-02-2020, Saat: 12:56
Son Yorum: BroserBros

Hızlı Menü:


Browsing: 1 Ziyaretçi