Filmbol Forum Film İndir BRRip XviD v The Predator (2018) Türkçe Dublaj Brrip Xvid İndir
Filmbol'da moderatör olmak ister misiniz? Bizimle iletişime geçmek için tıklayın!
The Predator (2018) Türkçe Dublaj Brrip Xvid İndir
BroserBros
The Predator (2018) Türkçe Dublaj Brrip Xvid İndir
1
332
  • Derecelendirme: 0/5 - 0 oy
  • 1
  • 2
  • 3
  • 4
  • 5
Konuyu Okuyanlar:1 Ziyaretçi
Şuan Online!
Filmin Yayınlanma Tarihi: 2018 
Şuan Online!
BroserBros Kurucu Admin
*******
Admin

indirme türü


Bulut + Premium

Vizyon Tarihi


14 Ekim 2018

Boyutlar


1,30

diller


[TR]

altyazilar


KISIM [Eklenebilir]

Video Format: Avi


Audio Video Interleave (.AVI)

Video Detay


MPEG-4, 1598Kbps, 1,19GB

imdb puanı


5,4 / 10,0 / 105,000

süre


107 dakika

Ses Kodek: MP3


MPEG-1 Audio Layer III (MP3)

Ses Detay


128 Kbps, 2 Kanal, 98Mb

Editör Puanı


6,8

Genislik Yukseklik


720-302

sürüm


h263 | Brrip Xvid




The Predator



Film Detayları

Predator, tehdit altında olan insan ırkını, ölümcül Predator ırkından korumaya çalışan bir ekibin mücadelesini anlatıyor. Küçük bir çocuğunun yaptığı yanlışlık, evrenin en ölümcül avcıları olan Predator ırkının gezegene geri dönmesine neden olur. Onlar artık hiç olmadığı kadar güçlü, zeki ve ölümcüldür. Irk kendilerini diğer türlerden topladıkları DNA örnekleri ile oldukça geliştirmiştir. İnsanlık büyük bir tehlike ile karşı karşıyadır. İnsan ırkının sona ermesini ise sadece eski askerler ve hoşnutsuz bir fen öğretmeninden oluşan uyumsuz bir ekip engelleyebilir.

Predator (The Predator) Filmi Imdb'den 105,000 kişi tarafından oylandı ve 5,4 puan aldı. Bu film için editör puanı 6,8 olarak belirlendi. İyi Seyirler!


Teknik Detaylar


Kod :
General
Complete name                            : The.Predator.2018.BRRip.XviD.TR.Filmbol.avi
Format                                   : AVI
Format/Info                              : Audio Video Interleave
File size                                : 1.30 GiB
Duration                                 : 1h 46mn
Overall bit rate                         : 1 739 Kbps

Video
ID                                       : 0
Format                                   : MPEG-4 Visual
Format profile                           : Simple@L5
Format settings, BVOP                    : No
Format settings, QPel                    : No
Format settings, GMC                     : No warppoints
Format settings, Matrix                  : Default (H.263)
Codec ID                                 : XVID
Codec ID/Hint                            : XviD
Duration                                 : 1h 46mn
Bit rate                                 : 1 598 Kbps
Width                                    : 720 pixels
Height                                   : 302 pixels
Display aspect ratio                     : 2.40:1
Frame rate                               : 23.976 fps
Color space                              : YUV
Chroma subsampling                       : 4:2:0
Bit depth                                : 8 bits
Scan type                                : Progressive
Compression mode                         : Lossy
Bits/(Pixel*Frame)                       : 0.307
Stream size                              : 1.19 GiB (92%)
Writing library                          : Lavc58.35.100

Audio
ID                                       : 1
Format                                   : MPEG Audio
Format version                           : Version 1
Format profile                           : Layer 3
Mode                                     : Joint stereo
Mode extension                           : MS Stereo
Codec ID                                 : 55
Codec ID/Hint                            : MP3
Duration                                 : 1h 46mn
Bit rate mode                            : Constant
Bit rate                                 : 128 Kbps
Channel(s)                               : 2 channels
Sampling rate                            : 48.0 KHz
Compression mode                         : Lossy
Stream size                              : 97.9 MiB (7%)
Alignment                                : Aligned on interleaves
Interleave, duration                     : 24 ms (0.58 video frame)

Film Detayları


The Predator

The Predator

The Predator


Film Fragmanı


Film Detayları

Brrip İndir



Uptobox ile indir

1Fichier ile indir

1Fichier'den İndiremiyor musun? Tıklayın!


Mega ile indir

MediaFire ile indir

Şuan Offine!
Şuan Offine!
doncastello Yeni Üye
*
Üye

  • Konular0
  • Mesajlar4
  • Rep puanı 0
Tesekkurler


Konu ile Alakalı Benzer Konular
Konular Yazar Yorumlar Okunma Son Yorum
Filmin Yayınlanma Tarihi: 2019
Luce (Luce) - 2019 - TR - BRRip XviD BroserBros 0 16 9 saat önce
Son Yorum: BroserBros
Filmin Yayınlanma Tarihi: 2020
Aşka İnan (I Still Believe) - 2020 - TR - BRRip XviD BroserBros 0 15 10 saat önce
Son Yorum: BroserBros
Filmin Yayınlanma Tarihi: 2018
Döndüm Ben (Yerli) - 2018 - TR - BRRip XviD BroserBros 0 36 27-11-2020, Saat: 18:40
Son Yorum: BroserBros
Filmin Yayınlanma Tarihi: 2018
Bana Bir Soygun Yaz 2 (Yerli) - 2018 - TR - BRRip XviD BroserBros 0 27 27-11-2020, Saat: 18:26
Son Yorum: BroserBros
Filmin Yayınlanma Tarihi: 2007
Amerikan Pastası 6: Beta Evi (American Pie: Beta House) - 2007 - TR - BRRip XviD BroserBros 2 247 27-11-2020, Saat: 14:31
Son Yorum: tayyib5731

Hızlı Menü: