Hoşgeldin, Ziyaretçi: Giriş Yap Üye Ol


Konuyu Oyla:
  • Derecelendirme: 0/5 - 0 oy
  • 1
  • 2
  • 3
  • 4
  • 5
Title: The Package Türkçe Dublaj m1080P İndir
Gösterim Stili
#1
Filmin Yayınlanma Tarihi: 2018 

indirme türü


Bulut + Premium

vizyon tarihi


10 Ağustos 2018

Boyutlar


1,58

diller


[TR]

altyazilar


Yok [Eklenebilir]

Video Format: Mkv


Matroska (.MKV)

Video Detay


MPEG-4, 2005 Kbps, 1,33GB

imdb puanı


5,5 / 10,0 / 5,000

süre


94 dakika

Ses Kodek: AC3


Audio Coding 3 (AC3)

Ses Detay


384 Kbps, 6 Kanal, 260 Mb

rarsifresi


filmbol.org

Editör Puanı


5,0

Genislik Yukseklik


1920x796

sürüm


x264 | 1080P


Film Detayları

Kampa giden beş yakın arkadaşın başlarına gelenleri konu ediyor. Beş yakın arkadaş sömestr tatillerinde eğlenceli vakit geçirmek için kamp yapmaya karar verir. Fakat bu tatil onların düşlediklerinden oldukça farklı geçer. Denizin tadını çıkarıp, ormanda gezintiye çıkan dostlar için başlarda her şey yolundadır. Fakat talihsiz bir kaza her şeyi alt üst eder. Bir yandan kendilerini birilerinin kurtarması için çabalayan gençler bir yandan da her şeylerini riske atarak en değerli varlıklarını kurtarmak için zamana karşı yarışır.

The Package Filmi İmdb'den 5.000 kişi tarafından oylandı ve 5,5 puan aldı. Bu film için editör puanı 5,0 olarak belirlendi. İyi Seyirler!


Teknik Detaylar
Kod:
General
Complete name                            : The.Package.2018.m1080p.x264-.TR.Filmbol.mkv
Format                                   : Matroska
Format version                           : Version 4 / Version 2
File size                                : 1.58 GiB
Duration                                 : 1 h 34 min
Overall bit rate                         : 2 391 kb/s
Movie name                               : The Package / 1080P / Filmbol.org
Writing application                      : mkvmerge v15.0.0 ('Duel with the Devil') 64-bit
Writing library                          : libebml v1.3.5 + libmatroska v1.4.7

Video
ID                                       : 1
Format                                   : AVC
Format/Info                              : Advanced Video Codec
Format profile                           : Main@L4
Format settings                          : CABAC / 2 Ref Frames
Format settings, CABAC                   : Yes
Format settings, ReFrames                : 2 frames
Codec ID                                 : V_MPEG4/ISO/AVC
Duration                                 : 1 h 34 min
Bit rate                                 : 2 005 kb/s
Width                                    : 1 920 pixels
Height                                   : 796 pixels
Display aspect ratio                     : 2.40:1
Frame rate mode                          : Constant
Frame rate                               : 23.976 (24000/1001) FPS
Color space                              : YUV
Chroma subsampling                       : 4:2:0
Bit depth                                : 8 bits
Scan type                                : Progressive
Bits/(Pixel*Frame)                       : 0.055
Stream size                              : 1.33 GiB (84%)
Title                                    : 1080P - filmbol.org
Default                                  : Yes
Forced                                   : No

Audio
ID                                       : 2
Format                                   : AC-3
Format/Info                              : Audio Coding 3
Codec ID                                 : A_AC3
Duration                                 : 1 h 34 min
Bit rate mode                            : Constant
Bit rate                                 : 384 kb/s
Channel(s)                               : 6 channels
Channel positions                        : Front: L C R, Side: L R, LFE
Sampling rate                            : 48.0 kHz
Frame rate                               : 31.250 FPS (1536 SPF)
Bit depth                                : 16 bits
Compression mode                         : Lossy
Stream size                              : 260 MiB (16%)
Title                                    : Türkçe - Filmbol.org
Language                                 : Turkish
Service kind                             : Complete Main
Default                                  : Yes
Forced                                   : No




Film Detayları


The Package

The Package

The Package

The Package

The Package


Film Fragmanı


Film Detayları

Mini 1080P İndir


Mega linki şuan da gizli. Kullanıma açmak için konuya yorum yapın ve ardından sayfayı yenileyin. Ayrıca bu linki açtığınızda reklamsız olarak erişebileceğinizi unutmayın.

Mega


Uptobox ile indir

CloudRu ile indir

 
Cevapla
  


Konu ile Alakalı Benzer Konular
Konular Yazar Yorumlar Okunma Son Yorum
Filmin Yayınlanma Tarihi: 2018 Çakallarla Dans 5 (2018) Yerli Film BLURAY m1080P İndir BroserBros 10 362 1 saat önce
Son Yorum: bakalım
  Çat Kapı Aşk (2019) Yerli Film BLURAY m1080P İndir BroserBros 4 245 17-01-2020, Saat: 20:38
Son Yorum: yasin2003
Filmin Yayınlanma Tarihi: 2018 Şipşak Aile (Instant Family) Türkçe Dublaj BLURAY m1080P İndir BroserBros 7 371 11-01-2020, Saat: 15:08
Son Yorum: ahkna
Filmin Yayınlanma Tarihi: 2016 Keanu Türkçe Dublaj m1080P İndir BroserBros 1 737 07-01-2020, Saat: 20:37
Son Yorum: Polatemirhan
Filmin Yayınlanma Tarihi: 2016 Uluslararası Bir Suikastçının Gerçek Hatıraları Türkçe Dublaj m1080P İndir BroserBros 2 796 06-01-2020, Saat: 21:12
Son Yorum: AliSavci

Hızlı Menü:


Browsing: 1 Ziyaretçi