Hoşgeldin, Ziyaretçi: Giriş Yap Üye Ol


stats
Adblock'u kapattıysanız tıklayın.
Hoşgeldiniz!
Filmbol'u tercih ettiğiniz için teşekkürler, ancak ablock kullanarak devam edemezsiniz.
Merak etmeyin. Heryerden ardı ardına çıkan reklamlar görmeyeceksiniz :)

Sadece site içi 1 reklam göreceksin ve bu site gezintini etkilemeyecek.
Konuyu Oyla:
  • Derecelendirme: 0/5 - 0 oy
  • 1
  • 2
  • 3
  • 4
  • 5
Title: The Laundromat (2019) Türkçe Dublaj Brrip Xvid İndir
Gösterim Stili
#1
Filmin Yayınlanma Tarihi: 2019 

indirme türü


Bulut + Premium

vizyon tarihi


27 Eylül 2019

Boyutlar


1,08

diller


[TR]

altyazilar


KISIM [Eklenebilir]

Video Format: Avi


Audio Video Interleave (.AVI)

Video Detay


MPEG-4, 1474 Kbps, 1,01GB

imdb puanı


6,3 / 10,0 / 17,000

süre


95 dakika

Ses Kodek: MP3


MPEG-1 Audio Layer III (MP3)

Ses Detay


128 Kbps, 2 Kanal, 88Mb

Editör Puanı


5,9

Genislik Yukseklik


720-404

sürüm


h263 | Brrip Xvid





The Laundromat


Film Detayları

The Laundromat, sigorta dolandırıcılığı mağduru olan bir kadının yaşadıklarını konu ediyor. Dul bir kadın olan Ellen Martin, aldığı kötü bir haber sonrası huzurlu tatilini yarıda bırakmak zorunda kalır. Sigorta dolandırıcılığı mağduru olan Ellen, başına gelen bu olayın ardındaki gerçekleri araştırmaya karar verir. Ellen, araştırmalarını ilerlettikçe yolu Panama'daki iki ortak avukata çıkar. Finans sistemini kendi çıkarları için kullanan Jürgen Mossack ve Ramón Fonseca, zenginleri daha da zengin yapma konusunda ustadır. İki avukat, yozlaşan finans sisteminin Ellen’ın yaşadığı dolandırıcılığın ardından yatan yasa dışı olayları nasıl desteklediğini ortaya çıkarmak için zorlu bir mücadeleye girişir.

The Laundromat (2019) Filmi Imdb'den 17,000 kişi tarafından oylandı ve 6,3 puan aldı. Bu film için editör puanı 5,9 olarak belirlendi. İyi Seyirler!


Teknik Detaylar


Kod:
General
Complete name                            : The.Laundromat.2019.WEBRip.XviD.TR.Filmbol.avi
Format                                   : AVI
Format/Info                              : Audio Video Interleave
File size                                : 1.08 GiB
Duration                                 : 1h 36mn
Overall bit rate                         : 1 615 Kbps

Video
ID                                       : 0
Format                                   : MPEG-4 Visual
Format profile                           : Advanced Simple@L5
Format settings, BVOP                    : 2
Format settings, QPel                    : No
Format settings, GMC                     : No warppoints
Format settings, Matrix                  : Default (MPEG)
Codec ID                                 : XVID
Codec ID/Hint                            : XviD
Duration                                 : 1h 36mn
Bit rate                                 : 1 474 Kbps
Width                                    : 720 pixels
Height                                   : 404 pixels
Display aspect ratio                     : 16:9
Frame rate                               : 24.000 fps
Color space                              : YUV
Chroma subsampling                       : 4:2:0
Bit depth                                : 8 bits
Scan type                                : Progressive
Compression mode                         : Lossy
Bits/(Pixel*Frame)                       : 0.211
Stream size                              : 1 012 MiB (91%)
Writing library                          : XviD 64

Audio
ID                                       : 1
Format                                   : MPEG Audio
Format version                           : Version 1
Format profile                           : Layer 3
Mode                                     : Joint stereo
Mode extension                           : MS Stereo
Codec ID                                 : 55
Codec ID/Hint                            : MP3
Duration                                 : 1h 36mn
Bit rate mode                            : Constant
Bit rate                                 : 128 Kbps
Channel(s)                               : 2 channels
Sampling rate                            : 48.0 KHz
Compression mode                         : Lossy
Stream size                              : 87.9 MiB (8%)
Alignment                                : Aligned on interleaves
Interleave, duration                     : 24 ms (0.58 video frame)
Writing library                          : LAME3.99.5

Film Detayları


The Laundromat (2019)

The Laundromat (2019)

The Laundromat (2019)

Film Fragmanı


Film Detayları

Brrip İndir


Uptobox ile indir

LetsUpload ile indir

Dosya Upload ile indir

Mega linki şuan da gizli. Kullanıma açmak için konuya yorum yapın ve ardından sayfayı yenileyin. Ayrıca bu linki açtığınızda reklamsız olarak erişebileceğinizi unutmayın.

Mega


Mediafire linki şuan da gizli. Kullanıma açmak için konuya yorum yapın ve ardından sayfayı yenileyin. Ayrıca bu linki açtığınızda reklamsız olarak erişebileceğinizi unutmayın.

Mediafire

 
Cevapla
#2
teşekkürler...
 
Cevapla
  


Konu ile Alakalı Benzer Konular
Konular Yazar Yorumlar Okunma Son Yorum
Filmin Yayınlanma Tarihi: 2018 Sessiz Kalma (The Hate U Give) Türkçe Dublaj Brrip Xvid İndir BroserBros 1 123 26-10-2019, Saat: 08:38
Son Yorum: komador06
Filmin Yayınlanma Tarihi: 2019 The Highwaymen (2019) Türkçe Dublaj Brrip Xvid İndir BroserBros 0 168 18-07-2019, Saat: 17:07
Son Yorum: BroserBros
Filmin Yayınlanma Tarihi: 2019 Shaft (Shaft) Türkçe Dublaj Brrip-Xvid İndir BroserBros 0 193 05-07-2019, Saat: 21:56
Son Yorum: BroserBros
Filmin Yayınlanma Tarihi: 2015 Sicario (Sicario) Türkçe Dublaj Brrip-Xvid İndir BroserBros 1 1,400 11-01-2019, Saat: 03:14
Son Yorum: mehmetemin
Filmin Yayınlanma Tarihi: 2018 Öldürme Arzusu (Death Wish) Türkçe Dublaj Brrip-Xvid İndir BroserBros 1 835 13-12-2018, Saat: 17:03
Son Yorum: rainbowdivx

Hızlı Menü:


Browsing: 1 Ziyaretçi