Filmbol Forum Film İndir 1080P v The Laundromat (2019) Türkçe Dublaj BLURAY m1080P İndir
Filmbol'da moderatör olmak ister misiniz? Bizimle iletişime geçmek için tıklayın!
The Laundromat (2019) Türkçe Dublaj BLURAY m1080P İndir
BroserBros
The Laundromat (2019) Türkçe Dublaj BLURAY m1080P İndir
1
272
  • Derecelendirme: 0/5 - 0 oy
  • 1
  • 2
  • 3
  • 4
  • 5
Konuyu Okuyanlar:1 Ziyaretçi
Şuan Online!
Filmin Yayınlanma Tarihi: 2019 
Şuan Online!
BroserBros Kurucu Admin
*******
Admin

indirme türü


Bulut + Premium

Vizyon Tarihi


27 Eylül 2019

Boyutlar


1,63

diller


[TR]

altyazilar


KISIM [Eklenebilir]

Video Format: Mkv


Matroska (.MKV)

Video Detay


MPEG-4, 2038 Kbps, 1,37GB

imdb puanı


6,3 / 10,0 / 17,000

süre


95 dakika

Ses Kodek: AC3


Audio Coding 3 (AC3)

Ses Detay


384 Kbps, 6 Kanal, 264Mb

Editör Puanı


5,9

Genislik Yukseklik


1920-1080

sürüm


x264 | 1080P (NF WEBDL)




The Laundromat


Film Detayları

The Laundromat, sigorta dolandırıcılığı mağduru olan bir kadının yaşadıklarını konu ediyor. Dul bir kadın olan Ellen Martin, aldığı kötü bir haber sonrası huzurlu tatilini yarıda bırakmak zorunda kalır. Sigorta dolandırıcılığı mağduru olan Ellen, başına gelen bu olayın ardındaki gerçekleri araştırmaya karar verir. Ellen, araştırmalarını ilerlettikçe yolu Panama'daki iki ortak avukata çıkar. Finans sistemini kendi çıkarları için kullanan Jürgen Mossack ve Ramón Fonseca, zenginleri daha da zengin yapma konusunda ustadır. İki avukat, yozlaşan finans sisteminin Ellen’ın yaşadığı dolandırıcılığın ardından yatan yasa dışı olayları nasıl desteklediğini ortaya çıkarmak için zorlu bir mücadeleye girişir.

The Laundromat (2019) Filmi Imdb'den 17,000 kişi tarafından oylandı ve 6,3 puan aldı. Bu film için editör puanı 5,9 olarak belirlendi. İyi Seyirler!


Teknik Detaylar


Kod :
General
Complete name                            : The.Laundromat.2019.m1080p.NF.WEB-DL.x264.TR.Filmbol.mkv
Format                                   : Matroska
Format version                           : Version 4 / Version 2
File size                                : 1.63 GiB
Duration                                 : 1h 36mn
Overall bit rate                         : 2 424 Kbps
Movie name                               : The Laundromat (2019) - Filmbol.org
Encoded date                             : UTC 2019-11-04 23:04:42
Writing application                      : mkvmerge v35.0.0 ('All The Love In The World') 64-bit
Writing library                          : libebml v1.3.9 + libmatroska v1.5.2

Video
ID                                       : 1
Format                                   : AVC
Format/Info                              : Advanced Video Codec
Format profile                           : Main@L4
Format settings, CABAC                   : Yes
Format settings, ReFrames                : 2 frames
Codec ID                                 : V_MPEG4/ISO/AVC
Duration                                 : 1h 36mn
Bit rate                                 : 2 038 Kbps
Width                                    : 1 920 pixels
Height                                   : 1 080 pixels
Display aspect ratio                     : 16:9
Frame rate mode                          : Constant
Frame rate                               : 24.000 fps
Color space                              : YUV
Chroma subsampling                       : 4:2:0
Bit depth                                : 8 bits
Scan type                                : Progressive
Bits/(Pixel*Frame)                       : 0.041
Stream size                              : 1.37 GiB (84%)
Title                                    : 1080P - Filmbol.org
Default                                  : Yes
Forced                                   : No

Audio
ID                                       : 2
Format                                   : AC-3
Format/Info                              : Audio Coding 3
Mode extension                           : CM (complete main)
Format settings, Endianness              : Big
Codec ID                                 : A_AC3
Duration                                 : 1h 36mn
Bit rate mode                            : Constant
Bit rate                                 : 384 Kbps
Channel(s)                               : 6 channels
Channel positions                        : Front: L C R, Side: L R, LFE
Sampling rate                            : 48.0 KHz
Frame rate                               : 31.250 fps (1536 spf)
Compression mode                         : Lossy
Stream size                              : 264 MiB (16%)
Title                                    : Türkçe - Filmbol.org
Language                                 : Turkish
Default                                  : Yes
Forced                                   : No

Text
ID                                       : 3
Format                                   : UTF-8
Codec ID                                 : S_TEXT/UTF8
Codec ID/Info                            : UTF-8 Plain Text
Duration                                 : 1h 30mn
Bit rate                                 : 3 bps
Count of elements                        : 74
Stream size                              : 2.54 KiB (0%)
Title                                    : KISIM
Language                                 : Turkish
Default                                  : Yes
Forced                                   : Yes

Film Detayları


The Laundromat (2019)

The Laundromat (2019)

The Laundromat (2019)

Film Fragmanı


Film Detayları

Mini 1080P İndir


Uptobox ile indir

LetsUpload ile indir

jpT2

Mega ile indir

MediaFire ile indir

Google Drive linki şuan da gizli. Kullanıma açmak için konuya yorum yapın ve ardından sayfayı yenileyin. Ayrıca bu linki açtığınızda reklamsız olarak erişebileceğinizi unutmayın.

Google Drive

Şuan Offine!
Şuan Offine!
eagle4791 Uzman Üye
**
Uzman Üye

  • Konular0
  • Mesajlar10
  • Rep puanı 0
teşekkürler


Konu ile Alakalı Benzer Konular
Konular Yazar Yorumlar Okunma Son Yorum
Filmin Yayınlanma Tarihi: 2019
Luce (Luce) - 2019 - TR+ORG - 1080P BroserBros 0 14 9 saat önce
Son Yorum: BroserBros
Filmin Yayınlanma Tarihi: 2019
Karlar Kraliçesi 4: Sihirli Ayna (Snezhnaya koroleva) Türkçe Dublaj m1080P İndir BroserBros 11 1,089 27-11-2020, Saat: 17:07
Son Yorum: Rdm
Filmin Yayınlanma Tarihi: 2019
Hain (The Traitor / Il traditore) - 2019 - TR+ORG - 1080P BroserBros 0 65 26-11-2020, Saat: 16:05
Son Yorum: BroserBros
Filmin Yayınlanma Tarihi: 2019
Ibiza (Ibiza) - 2019 - TR+ORG - 1080P BroserBros 0 36 26-11-2020, Saat: 14:57
Son Yorum: BroserBros
Filmin Yayınlanma Tarihi: 2019
Geri Sayım (Countdown) - 2019 - TR+ORG - 1080P BroserBros 0 38 25-11-2020, Saat: 15:54
Son Yorum: BroserBros

Hızlı Menü: