Filmbol Forum Film İndir BRRip XviD v The Last Thing He Wanted (2020) Türkçe Dublaj BRRip XviD indir
Mega linklerinin şikayet edilmemesi için global erişime kapatıp sadece yorum yapanlara açıyoruz. Bu linkleri gizleme işlemini mecburen yapıyoruz ve yorum yapmanızın siteye değil size faydası vardır. Teşekürler yazmayı çok görüp, Random/Spam mesajlar atarak Mega linklerini açmaya çalışan kullanıcılara önce süresiz ban, devam ederse IP ban atacağız.
Filmbol'da moderatör olmak ister misiniz? Bizimle iletişime geçmek için tıklayın!
The Last Thing He Wanted (2020) Türkçe Dublaj BRRip XviD indir
BroserBros
The Last Thing He Wanted (2020) Türkçe Dublaj BRRip XviD indir
0
222
  • Derecelendirme: 0/5 - 0 oy
  • 1
  • 2
  • 3
  • 4
  • 5
Konuyu Okuyanlar:1 Ziyaretçi
Şuan Online!
Filmin Yayınlanma Tarihi: 2020 
WWW
Şuan Online!
BroserBros Kurucu Admin
*******
Admin








 The Last Thing He Wanted



Elena McMahon uluslararası bir gazetecidir. Görevi bilindiği üzere bir çok farklı bir şekilde olabilir. Elena mesleği için elinden geleni yapar ve güzel işler çıkarır. Fakat yaptığı işlerin karşılığını almadığını düşünür ve daha fazla girişimci olmaya başlar. Bu durum ile Elena tehlikeli işler yapmaya başlar ve Iran-Kontra arasındaki skandal artmaya başladığında Elena kendini çok riskli bir alanda bulur ve hayatı tehlike altındadır.

The Last Thing He Wanted (2020) (2020) Filmi Imdb'den 4,000 kişi tarafından oylandı ve 4,3 puan aldı. Bu film için editör puanı 5,0 olarak belirlendi. İyi Seyirler!

Teknik Detaylar

Kod :
General
Complete name                            : /root/Desktop/3/The.Last.Thing.He.Wanted.2020.HDRip.XViD.TR.Filmbol.avi
Format                                   : AVI
Format/Info                              : Audio Video Interleave
File size                                : 1.70 GiB
Duration                                 : 1h 55mn
Overall bit rate                         : 2 106 Kbps

Video
ID                                       : 0
Format                                   : MPEG-4 Visual
Format profile                           : [email protected]
Format settings, BVOP                    : No
Format settings, QPel                    : No
Format settings, GMC                     : No warppoints
Format settings, Matrix                  : Default (H.263)
Codec ID                                 : XVID
Codec ID/Hint                            : XviD
Duration                                 : 1h 55mn
Bit rate                                 : 1 965 Kbps
Width                                    : 720 pixels
Height                                   : 432 pixels
Display aspect ratio                     : 5:3
Frame rate                               : 24.000 fps
Color space                              : YUV
Chroma subsampling                       : 4:2:0
Bit depth                                : 8 bits
Scan type                                : Progressive
Compression mode                         : Lossy
Bits/(Pixel*Frame)                       : 0.263
Stream size                              : 1.59 GiB (93%)
Writing library                          : Lavc58.1.100

Audio
ID                                       : 1
Format                                   : MPEG Audio
Format version                           : Version 1
Format profile                           : Layer 3
Mode                                     : Joint stereo
Mode extension                           : MS Stereo
Codec ID                                 : 55
Codec ID/Hint                            : MP3
Duration                                 : 1h 55mn
Bit rate mode                            : Constant
Bit rate                                 : 128 Kbps
Channel(s)                               : 2 channels
Sampling rate                            : 48.0 KHz
Compression mode                         : Lossy
Stream size                              : 106 MiB (6%)
Alignment                                : Aligned on interleaves
Interleave, duration                     : 24 ms (0.58 video frame)

Film Detayları


 The Last Thing He Wanted

 The Last Thing He Wanted

 The Last Thing He Wanted


Film Fragmanı


Film Detayları


Uptobox ile indir

1Fichier ile indir

1Fichier'den İndiremiyor musun? Tıklayın!


Mega linki şuan da gizli. Kullanıma açmak için konuya yorum yapın ve ardından sayfayı yenileyin.

Mega


MediaFire ile indir



Konu ile Alakalı Benzer Konular
Konular Yazar Yorumlar Okunma Son Yorum
Filmin Yayınlanma Tarihi: 1972
Baba (The Godfather) - 1972 - TR - BRRip XviD | tt0068646 BroserBros 3 255 1 saat önce
Son Yorum: Furkan61
Filmin Yayınlanma Tarihi: 1974
Baba 2 (The Godfather: Part II) - 1974 - TR - BRRip XviD | tt0071562 BroserBros 2 402 1 saat önce
Son Yorum: BroserBros
Filmin Yayınlanma Tarihi: 2008
VOL-i (WALL-E) - 2008 - TR - BRRip XviD | tt0910970 BroserBros 4 343 1 saat önce
Son Yorum: BroserBros
Filmin Yayınlanma Tarihi: 1990
Baba 3 (The Godfather: Part III) - 1990 - TR - BRRip XviD | tt0099674 BroserBros 3 286 2 saat önce
Son Yorum: Furkan61
Filmin Yayınlanma Tarihi: 1998
Armageddon (Armageddon) - 1998 - TR - BRRip XviD | tt0120591 BroserBros 1 266 4 saat önce
Son Yorum: BroserBros

Hızlı Menü: