Filmbol Forum Film İndir 720P v The Last Thing He Wanted (2020) Türkçe Dublaj BLURAY 720P indir
Mega linklerinin şikayet edilmemesi için global erişime kapatıp sadece yorum yapanlara açıyoruz. Bu linkleri gizleme işlemini mecburen yapıyoruz ve yorum yapmanızın siteye değil size faydası vardır. Teşekürler yazmayı çok görüp, Random/Spam mesajlar atarak Mega linklerini açmaya çalışan kullanıcılara önce süresiz ban, devam ederse IP ban atacağız.
Filmbol'da moderatör olmak ister misiniz? Bizimle iletişime geçmek için tıklayın!
The Last Thing He Wanted (2020) Türkçe Dublaj BLURAY 720P indir
BroserBros
The Last Thing He Wanted (2020) Türkçe Dublaj BLURAY 720P indir
1
258
  • Derecelendirme: 0/5 - 0 oy
  • 1
  • 2
  • 3
  • 4
  • 5
Konuyu Okuyanlar:1 Ziyaretçi
Şuan Online!
Filmin Yayınlanma Tarihi: 2020 
WWW
Şuan Online!
BroserBros Kurucu Admin
*******
Admin








 The Last Thing He Wanted



Elena McMahon uluslararası bir gazetecidir. Görevi bilindiği üzere bir çok farklı bir şekilde olabilir. Elena mesleği için elinden geleni yapar ve güzel işler çıkarır. Fakat yaptığı işlerin karşılığını almadığını düşünür ve daha fazla girişimci olmaya başlar. Bu durum ile Elena tehlikeli işler yapmaya başlar ve Iran-Kontra arasındaki skandal artmaya başladığında Elena kendini çok riskli bir alanda bulur ve hayatı tehlike altındadır.

The Last Thing He Wanted (2020) (2020) Filmi Imdb'den 4,000 kişi tarafından oylandı ve 4,3 puan aldı. Bu film için editör puanı 5,0 olarak belirlendi. İyi Seyirler!

Teknik Detaylar

Kod :
General
Unique ID                                : 300293171951576622441376096031528164308 (0xE1EA5C77518CD1D00037192E34AF9BD4)
Complete name                            : /root/Desktop/3/The.Last.Thing.He.Wanted.2020.720p.NF.WEB-DL.x264.TR.Filmbol.mkv
Format                                   : Matroska
Format version                           : Version 4 / Version 2
File size                                : 1.31 GiB
Duration                                 : 1h 55mn
Overall bit rate                         : 1 615 Kbps
Movie name                               : The Last Thing He Wanted (2020) - Filmbol.org
Encoded date                             : UTC 2020-02-25 09:14:45
Writing application                      : mkvmerge v35.0.0 ('All The Love In The World') 64-bit
Writing library                          : libebml v1.3.9 + libmatroska v1.5.2

Video
ID                                       : 1
Format                                   : AVC
Format/Info                              : Advanced Video Codec
Format profile                           : [email protected]
Format settings, CABAC                   : Yes
Format settings, ReFrames                : 2 frames
Codec ID                                 : V_MPEG4/ISO/AVC
Duration                                 : 1h 55mn
Bit rate                                 : 1 229 Kbps
Width                                    : 1 280 pixels
Height                                   : 720 pixels
Display aspect ratio                     : 16:9
Frame rate mode                          : Constant
Frame rate                               : 24.000 fps
Color space                              : YUV
Chroma subsampling                       : 4:2:0
Bit depth                                : 8 bits
Scan type                                : Progressive
Bits/(Pixel*Frame)                       : 0.056
Stream size                              : 1 018 MiB (76%)
Title                                    : 720P - Filmbol.org
Default                                  : Yes
Forced                                   : No

Audio
ID                                       : 2
Format                                   : AC-3
Format/Info                              : Audio Coding 3
Mode extension                           : CM (complete main)
Format settings, Endianness              : Big
Codec ID                                 : A_AC3
Duration                                 : 1h 55mn
Bit rate mode                            : Constant
Bit rate                                 : 384 Kbps
Channel(s)                               : 6 channels
Channel positions                        : Front: L C R, Side: L R, LFE
Sampling rate                            : 48.0 KHz
Frame rate                               : 31.250 fps (1536 spf)
Compression mode                         : Lossy
Stream size                              : 318 MiB (24%)
Title                                    : Türkçe - Filmbol.org
Language                                 : Turkish
Default                                  : Yes
Forced                                   : No

Text
ID                                       : 3
Format                                   : UTF-8
Codec ID                                 : S_TEXT/UTF8
Codec ID/Info                            : UTF-8 Plain Text
Duration                                 : 1h 54mn
Bit rate                                 : 2 bps
Count of elements                        : 68
Stream size                              : 2.36 KiB (0%)
Title                                    : KISIM
Language                                 : Turkish
Default                                  : Yes
Forced                                   : Yes

Film Detayları


 The Last Thing He Wanted

 The Last Thing He Wanted

 The Last Thing He Wanted


Film Fragmanı


Film Detayları

Uptobox ile indir

1Fichier ile indir

1Fichier'den İndiremiyor musun? Tıklayın!


Mega linki şuan da gizli. Kullanıma açmak için konuya yorum yapın ve ardından sayfayı yenileyin.

Mega


MediaFire ile indir

Şuan Offine!
Şuan Offine!
maniach1905 Yeni Üye
*
Üye

  • Konular0
  • Mesajlar2
  • Rep puanı 0
teşekkürler


Konu ile Alakalı Benzer Konular
Konular Yazar Yorumlar Okunma Son Yorum
Filmin Yayınlanma Tarihi: 1974
Baba 2 (The Godfather: Part II) - 1974 - TR+ORG - 720P | tt0071562 BroserBros 1 266 1 saat önce
Son Yorum: BroserBros
Filmin Yayınlanma Tarihi: 2008
VOL-i (WALL-E) - 2008 - TR+ORG - 720P | tt0910970 BroserBros 2 334 1 saat önce
Son Yorum: BroserBros
Filmin Yayınlanma Tarihi: 1972
Baba (The Godfather) - 1972 - TR+ORG - 720P | tt0068646 BroserBros 1 209 2 saat önce
Son Yorum: BroserBros
Filmin Yayınlanma Tarihi: 1990
Baba 3 (The Godfather: Part III) - 1990 - TR+ORG - 720P | tt0099674 BroserBros 1 269 2 saat önce
Son Yorum: BroserBros
Filmin Yayınlanma Tarihi: 1998
Armageddon (Armageddon) - 1998 - TR+ORG - 720P | tt0120591 BroserBros 1 299 4 saat önce
Son Yorum: BroserBros

Hızlı Menü: