Hoşgeldin, Ziyaretçi: Giriş Yap Üye Ol


stats
Adblock'u kapattıysanız tıklayın.
Hoşgeldiniz!
Filmbol'u tercih ettiğiniz için teşekkürler, ancak ablock kullanarak devam edemezsiniz.
Merak etmeyin. Heryerden ardı ardına çıkan reklamlar görmeyeceksiniz :)

Sadece site içi 1 reklam göreceksin ve bu site gezintini etkilemeyecek.
Konuyu Oyla:
  • Derecelendirme: 0/5 - 0 oy
  • 1
  • 2
  • 3
  • 4
  • 5
Title: The Knight Before Christmas (2019) Türkçe Dublaj Brrip Xvid İndir
Gösterim Stili
#1
Filmin Yayınlanma Tarihi: 2019 

indirme türü


Bulut + Premium

vizyon tarihi


21 Kasım 2019

Boyutlar


1,12

diller


[TR]

altyazilar


KISIM [Eklenebilir]

Video Format: Avi


Audio Video Interleave (.AVI)

Video Detay


MPEG-4, 1585Kbps, 1,03GB

imdb puanı


5,5 / 10,0 / 5,0000

süre


92 dakika

Ses Kodek: MP3


MPEG-1 Audio Layer III (MP3)

Ses Detay


128 Kbps, 2 Kanal, 85Mb

Editör Puanı


5,0

Genislik Yukseklik


720-360

sürüm


h263 | Brrip Xvid





The Knight Before Christmas


Film Detayları

Orta Çağ şövalyesi Sir Cole, bir büyücü tarafında Noel tatilinin ortasında bugünkü Ohio'ya ışınlanır. İyi kalpli bir öğretmen olan Brooke'un yolu talihsiz bir kaza sonucu Cole ile kesişir. Arabası ile Cole'e çarpan Brooke, genç adamı hastaneye götürür. Burada kendisini şovalye olarak tanıtan Cole', kimseye kendisini inandıramaz. Doktorlar Cole''un kaza sonucu hafıza kaybı yaşadığını düşünür. Bu durumdan kendisini sorumlu tutan Brooke, bu süreçte Cole'e yardımcı olmaya çalışır. Bu sayede yakınlaşmaya başlayan ve birbirlerinden etkilenen Brooke ve Cole, karşılarına çıkan zorlukların üstesinden gelebilecek midir?

The Knight Before Christmas (2019) Filmi Imdb'den 5,000 kişi tarafından oylandı ve 5,5 puan aldı. Bu film için editör puanı 5,0 olarak belirlendi. İyi Seyirler!


Teknik Detaylar


Kod:
General
Complete name                            : The.Knight.Before.Christmas.2019.HDRip.XviD.TR.Filmbol.avi
Format                                   : AVI
Format/Info                              : Audio Video Interleave
File size                                : 1.12 GiB
Duration                                 : 1h 32mn
Overall bit rate                         : 1 726 Kbps

Video
ID                                       : 0
Format                                   : MPEG-4 Visual
Format profile                           : Simple@L5
Format settings, BVOP                    : No
Format settings, QPel                    : No
Format settings, GMC                     : No warppoints
Format settings, Matrix                  : Default (H.263)
Codec ID                                 : XVID
Codec ID/Hint                            : XviD
Duration                                 : 1h 32mn
Bit rate                                 : 1 585 Kbps
Width                                    : 720 pixels
Height                                   : 360 pixels
Display aspect ratio                     : 2.000
Frame rate                               : 24.000 fps
Color space                              : YUV
Chroma subsampling                       : 4:2:0
Bit depth                                : 8 bits
Scan type                                : Progressive
Compression mode                         : Lossy
Bits/(Pixel*Frame)                       : 0.255
Stream size                              : 1.03 GiB (92%)
Writing library                          : Lavc58.35.100

Audio
ID                                       : 1
Format                                   : MPEG Audio
Format version                           : Version 1
Format profile                           : Layer 3
Mode                                     : Joint stereo
Mode extension                           : MS Stereo
Codec ID                                 : 55
Codec ID/Hint                            : MP3
Duration                                 : 1h 32mn
Bit rate mode                            : Constant
Bit rate                                 : 128 Kbps
Channel(s)                               : 2 channels
Sampling rate                            : 48.0 KHz
Compression mode                         : Lossy
Stream size                              : 84.8 MiB (7%)
Alignment                                : Aligned on interleaves
Interleave, duration                     : 24 ms (0.58 video frame)

Film Detayları


The Knight Before Christmas

The Knight Before Christmas

The Knight Before Christmas



Film Fragmanı


Film Detayları

Brrip İndir



Uptobox ile indir

LetsUpload ile indir

Mega linki şuan da gizli. Kullanıma açmak için konuya yorum yapın ve ardından sayfayı yenileyin. Ayrıca bu linki açtığınızda reklamsız olarak erişebileceğinizi unutmayın.

Mega


Mediafire linki şuan da gizli. Kullanıma açmak için konuya yorum yapın ve ardından sayfayı yenileyin. Ayrıca bu linki açtığınızda reklamsız olarak erişebileceğinizi unutmayın.

Mediafire

 
Cevapla
  


Konu ile Alakalı Benzer Konular
Konular Yazar Yorumlar Okunma Son Yorum
Filmin Yayınlanma Tarihi: 2015 Spectre (James Bond 007: Spectre) Türkçe Dublaj Brrip-Xvid İndir BroserBros 1 2,092 12-12-2019, Saat: 05:53
Son Yorum: BroserBros
Filmin Yayınlanma Tarihi: 2015 Jurassic Park 4 (Jurassic World) Türkçe Dublaj Brrip-Xvid İndir BroserBros 1 2,612 12-12-2019, Saat: 00:51
Son Yorum: BroserBros
Filmin Yayınlanma Tarihi: 2015 Çılgın Max: Öfkeli Yollar (2015) Türkçe Dublaj Brrip-Xvid İndir BroserBros 1 1,824 10-12-2019, Saat: 19:04
Son Yorum: BroserBros
Filmin Yayınlanma Tarihi: 2015 San Andreas Fayı (San Andreas) Türkçe Dublaj Brrip-Xvid İndir BroserBros 2 2,487 10-12-2019, Saat: 12:37
Son Yorum: turkopol
Filmin Yayınlanma Tarihi: 2016 Kaplan ve Ejderha 2 (Crouching Tiger Hidden Drogon 2) Türkçe Dublaj Brrip-Xvid İndir BroserBros 1 1,040 10-12-2019, Saat: 12:29
Son Yorum: mehmedakyol

Hızlı Menü:


Browsing: 1 Ziyaretçi