Hoşgeldin, Ziyaretçi: Giriş Yap Üye Ol


stats
Adblock'u kapattıysanız tıklayın.
Hoşgeldiniz!
Filmbol'u tercih ettiğiniz için teşekkürler, ancak ablock kullanarak devam edemezsiniz.
Merak etmeyin. Heryerden ardı ardına çıkan reklamlar görmeyeceksiniz :)

Sadece site içi 1 reklam göreceksin ve bu site gezintini etkilemeyecek.
Konuyu Oyla:
  • Derecelendirme: 0/5 - 0 oy
  • 1
  • 2
  • 3
  • 4
  • 5
Title: The Knight Before Christmas (2019) Türkçe Dublaj BLURAY m720P İndir
Gösterim Stili
#1
Filmin Yayınlanma Tarihi: 2019 

indirme türü


Bulut + Premium

vizyon tarihi


21 Kasım 2019

Boyutlar


1,06

diller


[TR]

altyazilar


KISIM [Eklenebilir]

Video Format: Mkv


Matroska (.MKV)

Video Detay


MPEG-4, 1260Kbps, 0,83GB

imdb puanı


5,5 / 10,0 / 5,0000

süre


92 dakika

Ses Kodek: AC3


Audio Coding 3 (AC3)

Ses Detay


384Kbps, 6 Kanal, 254Mb

Editör Puanı


5,0

Genislik Yukseklik


1280-720

sürüm


x264 | 720P (NF-WEBDL)





The Knight Before Christmas


Film Detayları

Orta Çağ şövalyesi Sir Cole, bir büyücü tarafında Noel tatilinin ortasında bugünkü Ohio'ya ışınlanır. İyi kalpli bir öğretmen olan Brooke'un yolu talihsiz bir kaza sonucu Cole ile kesişir. Arabası ile Cole'e çarpan Brooke, genç adamı hastaneye götürür. Burada kendisini şovalye olarak tanıtan Cole', kimseye kendisini inandıramaz. Doktorlar Cole''un kaza sonucu hafıza kaybı yaşadığını düşünür. Bu durumdan kendisini sorumlu tutan Brooke, bu süreçte Cole'e yardımcı olmaya çalışır. Bu sayede yakınlaşmaya başlayan ve birbirlerinden etkilenen Brooke ve Cole, karşılarına çıkan zorlukların üstesinden gelebilecek midir?

The Knight Before Christmas (2019) Filmi Imdb'den 5,000 kişi tarafından oylandı ve 5,5 puan aldı. Bu film için editör puanı 5,0 olarak belirlendi. İyi Seyirler!


Teknik Detaylar


Kod:
General
Complete name                            : The.Knight.Before.Christmas.2019.m720p.NF.WEB-DL.x264.TR.Filmbol.mkv
Format                                   : Matroska
Format version                           : Version 4 / Version 2
File size                                : 1.06 GiB
Duration                                 : 1h 32mn
Overall bit rate                         : 1 646 Kbps
Movie name                               : The Knight Before Christmas (2019) - Filmbol.org
Encoded date                             : UTC 2019-11-27 20:41:11
Writing application                      : mkvmerge v35.0.0 ('All The Love In The World') 64-bit
Writing library                          : libebml v1.3.9 + libmatroska v1.5.2

Video
ID                                       : 1
Format                                   : AVC
Format/Info                              : Advanced Video Codec
Format profile                           : Main@L3.1
Format settings, CABAC                   : Yes
Format settings, ReFrames                : 2 frames
Codec ID                                 : V_MPEG4/ISO/AVC
Duration                                 : 1h 32mn
Bit rate                                 : 1 260 Kbps
Width                                    : 1 280 pixels
Height                                   : 720 pixels
Display aspect ratio                     : 16:9
Frame rate mode                          : Constant
Frame rate                               : 24.000 fps
Color space                              : YUV
Chroma subsampling                       : 4:2:0
Bit depth                                : 8 bits
Scan type                                : Progressive
Bits/(Pixel*Frame)                       : 0.057
Stream size                              : 835 MiB (77%)
Title                                    : 720P - Filmbol.org
Default                                  : Yes
Forced                                   : No

Audio
ID                                       : 2
Format                                   : AC-3
Format/Info                              : Audio Coding 3
Mode extension                           : CM (complete main)
Format settings, Endianness              : Big
Codec ID                                 : A_AC3
Duration                                 : 1h 32mn
Bit rate mode                            : Constant
Bit rate                                 : 384 Kbps
Channel(s)                               : 6 channels
Channel positions                        : Front: L C R, Side: L R, LFE
Sampling rate                            : 48.0 KHz
Frame rate                               : 31.250 fps (1536 spf)
Compression mode                         : Lossy
Stream size                              : 254 MiB (23%)
Title                                    : Türkçe - Filmbol.org
Language                                 : Turkish
Default                                  : Yes
Forced                                   : No

Text
ID                                       : 3
Format                                   : UTF-8
Codec ID                                 : S_TEXT/UTF8
Codec ID/Info                            : UTF-8 Plain Text
Duration                                 : 1h 31mn
Bit rate                                 : 0 bps
Count of elements                        : 20
Stream size                              : 463 Bytes (0%)
Title                                    : KISIM
Language                                 : Turkish
Default                                  : Yes
Forced                                   : Yes

Film Detayları


The Knight Before Christmas

The Knight Before Christmas

The Knight Before Christmas



Film Fragmanı


Film Detayları

Mini 720P İndir



Uptobox ile indir

LetsUpload ile indir

Mega linki şuan da gizli. Kullanıma açmak için konuya yorum yapın ve ardından sayfayı yenileyin. Ayrıca bu linki açtığınızda reklamsız olarak erişebileceğinizi unutmayın.

Mega


Mediafire linki şuan da gizli. Kullanıma açmak için konuya yorum yapın ve ardından sayfayı yenileyin. Ayrıca bu linki açtığınızda reklamsız olarak erişebileceğinizi unutmayın.

Mediafire

 
Cevapla
  


Konu ile Alakalı Benzer Konular
Konular Yazar Yorumlar Okunma Son Yorum
Filmin Yayınlanma Tarihi: 2018 Karınca-Adam ve Eşek Arısı (Ant-Man and Wasp) Türkçe Dublaj BLURAY 720P İndir BroserBros 0 207 06-12-2019, Saat: 17:36
Son Yorum: BroserBros
Filmin Yayınlanma Tarihi: 2019 Pokemon Dedektif Pikachu (Pokemon Detective Pikachu) Türkçe Dublaj BLURAY m720P İndir BroserBros 5 413 06-11-2019, Saat: 13:50
Son Yorum: gokturktr
Filmin Yayınlanma Tarihi: 2019 IO (2019) Türkçe Dublaj BLURAY m720P İndir BroserBros 1 224 18-07-2019, Saat: 11:24
Son Yorum: Megabyte

Hızlı Menü:


Browsing: 2 Ziyaretçi