Filmbol Forum Film İndir 1080P v The Knight Before Christmas (2019) Türkçe Dublaj BLURAY m1080P İndir
Mega linklerinin şikayet edilmemesi için global erişime kapatıp sadece yorum yapanlara açıyoruz. Bu linkleri gizleme işlemini mecburen yapıyoruz ve yorum yapmanızın siteye değil size faydası vardır. Teşekürler yazmayı çok görüp, Random/Spam mesajlar atarak Mega linklerini açmaya çalışan kullanıcılara önce süresiz ban, devam ederse IP ban atacağız.
Filmbol'da moderatör olmak ister misiniz? Bizimle iletişime geçmek için tıklayın!
The Knight Before Christmas (2019) Türkçe Dublaj BLURAY m1080P İndir
BroserBros
The Knight Before Christmas (2019) Türkçe Dublaj BLURAY m1080P İndir
0
793
  • Derecelendirme: 0/5 - 0 oy
  • 1
  • 2
  • 3
  • 4
  • 5
Konuyu Okuyanlar:1 Ziyaretçi
Şuan Online!
Filmin Yayınlanma Tarihi: 2019 
WWW
Şuan Online!
BroserBros Kurucu Admin
*******
Admin





Ses Kodek: AC3


Audio Coding 3 (AC3)






The Knight Before Christmas



Teknik Detaylar


Kod :
General
Complete name                            : The.Knight.Before.Christmas.2019.m1080p.NF.WEB-DL.x264.TR.Filmbol.mkv
Format                                   : Matroska
Format version                           : Version 4 / Version 2
File size                                : 1.56 GiB
Duration                                 : 1h 32mn
Overall bit rate                         : 2 409 Kbps
Movie name                               : The Knight Before Christmas (2019) - Filmbol.org
Encoded date                             : UTC 2019-11-27 20:44:46
Writing application                      : mkvmerge v35.0.0 ('All The Love In The World') 64-bit
Writing library                          : libebml v1.3.9 + libmatroska v1.5.2

Video
ID                                       : 1
Format                                   : AVC
Format/Info                              : Advanced Video Codec
Format profile                           : [email protected]
Format settings, CABAC                   : Yes
Format settings, ReFrames                : 2 frames
Codec ID                                 : V_MPEG4/ISO/AVC
Duration                                 : 1h 32mn
Bit rate                                 : 2 023 Kbps
Width                                    : 1 920 pixels
Height                                   : 1 080 pixels
Display aspect ratio                     : 16:9
Frame rate mode                          : Constant
Frame rate                               : 24.000 fps
Color space                              : YUV
Chroma subsampling                       : 4:2:0
Bit depth                                : 8 bits
Scan type                                : Progressive
Bits/(Pixel*Frame)                       : 0.041
Stream size                              : 1.31 GiB (84%)
Title                                    : 1080P - Filmbol.org
Default                                  : Yes
Forced                                   : No

Audio
ID                                       : 2
Format                                   : AC-3
Format/Info                              : Audio Coding 3
Mode extension                           : CM (complete main)
Format settings, Endianness              : Big
Codec ID                                 : A_AC3
Duration                                 : 1h 32mn
Bit rate mode                            : Constant
Bit rate                                 : 384 Kbps
Channel(s)                               : 6 channels
Channel positions                        : Front: L C R, Side: L R, LFE
Sampling rate                            : 48.0 KHz
Frame rate                               : 31.250 fps (1536 spf)
Compression mode                         : Lossy
Stream size                              : 254 MiB (16%)
Title                                    : Türkçe - Filmbol.org
Language                                 : Turkish
Default                                  : Yes
Forced                                   : No

Text
ID                                       : 3
Format                                   : UTF-8
Codec ID                                 : S_TEXT/UTF8
Codec ID/Info                            : UTF-8 Plain Text
Duration                                 : 1h 31mn
Bit rate                                 : 0 bps
Count of elements                        : 20
Stream size                              : 463 Bytes (0%)
Title                                    : KISIM
Language                                 : Turkish
Default                                  : Yes
Forced                                   : Yes

Film Detayları


The Knight Before Christmas

The Knight Before Christmas

The Knight Before Christmas



Film Fragmanı


Film Detayları

Mini 1080P İndir



Uptobox ile indir

Mega linki şuan da gizli. Kullanıma açmak için konuya yorum yapın ve ardından sayfayı yenileyin.

Mega


MediaFire ile indir



Konu ile Alakalı Benzer Konular
Konular Yazar Yorumlar Okunma Son Yorum
  Uzaydan Gelen Renk (Color Out of Space) - 2019 - TR+ORG - 1080P | tt5073642 TheSteeL 0 29 , Saat: 21:01
Son Yorum: TheSteeL
Filmin Yayınlanma Tarihi: 2019
Silahlar Fora (Guns Akimbo) - 2019 - TR+ORG - 1080P | tt6902676 TheSteeL 0 52 06-03-2021, Saat: 22:06
Son Yorum: TheSteeL
  İmkansız Canavarlar (Impossible Monsters) - 2019 - TR+ORG - 1080P | tt4328094 TheSteeL 0 53 06-03-2021, Saat: 21:54
Son Yorum: TheSteeL
Filmin Yayınlanma Tarihi: 2019
Sırlar Kitabı (Les traducteurs) - 2019 - TR+ORG - 1080P | tt6270534 TheSteeL 1 80 05-03-2021, Saat: 21:59
Son Yorum: ahmettuncr
Filmin Yayınlanma Tarihi: 2018
Parti Kraliçesi (Life of The Party) Türkçe Dublaj m1080P İndir BroserBros 1 699 04-03-2021, Saat: 20:29
Son Yorum: windowsxp

Hızlı Menü: