Filmbol Forum Film İndir BRRip XviD v The Irishman (2019) Türkçe Dublaj Brrip Xvid İndir
Moderatör Alımları Başladı! Başvuru yapmak için tıklayın.
Filmbol Premium'da %50'e varan indirim fırsatı!
The Irishman (2019) Türkçe Dublaj Brrip Xvid İndir
BroserBros
The Irishman (2019) Türkçe Dublaj Brrip Xvid İndir
0
605
  • Derecelendirme: 0/5 - 0 oy
  • 1
  • 2
  • 3
  • 4
  • 5
Konuyu Okuyanlar:1 Ziyaretçi
Şuan Online!
Filmin Yayınlanma Tarihi: 2019 
Şuan Online!
BroserBros Kurucu Admin
*******
Admin

indirme türü


Bulut + Premium

Vizyon Tarihi


27 Kasım 2019

Boyutlar


1,73

diller


[TR]

altyazilar


Yok [Eklenebilir]

Video Format: Avi


Audio Video Interleave (.AVI)

Video Detay


MPEG-4, 1040Kbps, 1,52GB

imdb puanı


8,6 / 10,0 / 40,000

süre


209 dakika

Ses Kodek: MP3


MPEG-1 Audio Layer III (MP3)

Ses Detay


128 Kbps, 2 Kanal, 192Mb

Editör Puanı


7,3

Genislik Yukseklik


720-404

sürüm


h263 | Brrip Xvid




The Irishman 2019


Film Detayları

The Irishman, bir mafya tetikçisi olan Frank Sheeran’ın hayatına odaklanıyor. II. Dünya Savaşı'nda görev almış eski bir asker olan Frank Sheeran, yıllar boyu Bufalino suç örgütü için çalışmıştır. Birçok ünlü isim için dolandırıcılık, tetikçilik yapan ve ‘İrlandalı’ lakabı ile anılan Sheeran, aynı zamanda işçi sendikası memurudur. Frank Sheeran’ın hayatından kesitlerin sunulduğu filmde, Amerikan tarihinin en gizemli suç olaylarından biri olan işçi lideri Jimmy Hoffa'nın ortadan kayboluşuna da değiniliyor.

The Irishman (2019) Filmi Imdb'den 40,000 kişi tarafından oylandı ve 8,6 puan aldı. Bu film için editör puanı 7,3 olarak belirlendi. İyi Seyirler!


Teknik Detaylar


Kod :
General
Complete name                            : The.Irishman.2019.HDRip.XViD.TR.Filmbol.avi
Format                                   : AVI
Format/Info                              : Audio Video Interleave
File size                                : 1.73 GiB
Duration                                 : 3h 29mn
Overall bit rate                         : 1 181 Kbps

Video
ID                                       : 0
Format                                   : MPEG-4 Visual
Format profile                           : Advanced Simple@L5
Format settings, BVOP                    : 2
Format settings, QPel                    : No
Format settings, GMC                     : No warppoints
Format settings, Matrix                  : Default (MPEG)
Codec ID                                 : XVID
Codec ID/Hint                            : XviD
Duration                                 : 3h 29mn
Bit rate                                 : 1 040 Kbps
Width                                    : 720 pixels
Height                                   : 404 pixels
Display aspect ratio                     : 16:9
Frame rate                               : 24.000 fps
Color space                              : YUV
Chroma subsampling                       : 4:2:0
Bit depth                                : 8 bits
Scan type                                : Progressive
Compression mode                         : Lossy
Bits/(Pixel*Frame)                       : 0.149
Stream size                              : 1.52 GiB (88%)
Writing library                          : XviD 64

Audio
ID                                       : 1
Format                                   : MPEG Audio
Format version                           : Version 1
Format profile                           : Layer 3
Mode                                     : Joint stereo
Mode extension                           : MS Stereo
Codec ID                                 : 55
Codec ID/Hint                            : MP3
Duration                                 : 3h 29mn
Bit rate mode                            : Constant
Bit rate                                 : 128 Kbps
Channel(s)                               : 2 channels
Sampling rate                            : 48.0 KHz
Compression mode                         : Lossy
Stream size                              : 192 MiB (11%)
Alignment                                : Aligned on interleaves
Interleave, duration                     : 24 ms (0.58 video frame)

Film Detayları


The Irishman 2019

The Irishman 2019

The Irishman 2019


Film Fragmanı


Film Detayları

Brrip İndir



Uptobox ile indir

LetsUpload ile indir

Mega ile indir

MediaFire ile indir



Konu ile Alakalı Benzer Konular
Konular Yazar Yorumlar Okunma Son Yorum
Filmin Yayınlanma Tarihi: 2019
Kelly Çetesi'nin Gerçek Hikayesi (True History of the Kelly Gang) - 2019 - TR - BRRip XviD BroserBros 0 74 11-07-2020, Saat: 20:23
Son Yorum: BroserBros
Filmin Yayınlanma Tarihi: 2019
İçerideki Adam: Muhbir (Inside Man: Most Wanted) - 2019 - TR - BRRip XviD BroserBros 0 76 11-07-2020, Saat: 20:10
Son Yorum: BroserBros
Filmin Yayınlanma Tarihi: 2018
Düzenbazlar Kulübü (Billionaire Boys Club) - 2018 - TR - BRRip XviD BroserBros 0 73 11-07-2020, Saat: 19:58
Son Yorum: BroserBros
Filmin Yayınlanma Tarihi: 2020
Özgürlük Listesi (The F**k-It List) - 2020 - TR - BRRip XviD BroserBros 0 41 10-07-2020, Saat: 23:09
Son Yorum: BroserBros
Filmin Yayınlanma Tarihi: 2019
Travma Merkezi (Trauma Center) - 2019 - TR - BRRip XviD BroserBros 0 38 10-07-2020, Saat: 22:53
Son Yorum: BroserBros

Hızlı Menü: