Hoşgeldin, Ziyaretçi: Giriş Yap Üye Ol


stats
Adblock'u kapattıysanız tıklayın.
Hoşgeldiniz!
Filmbol'u tercih ettiğiniz için teşekkürler, ancak ablock kullanarak devam edemezsiniz.
Merak etmeyin. Heryerden ardı ardına çıkan reklamlar görmeyeceksiniz :)

Sadece site içi 1 reklam göreceksin ve bu site gezintini etkilemeyecek.
Konuyu Oyla:
  • Derecelendirme: 0/5 - 0 oy
  • 1
  • 2
  • 3
  • 4
  • 5
Title: The Irishman (2019) Türkçe Dublaj Brrip Xvid İndir
Gösterim Stili
#1
Filmin Yayınlanma Tarihi: 2019 

indirme türü


Bulut + Premium

vizyon tarihi


27 Kasım 2019

Boyutlar


1,73

diller


[TR]

altyazilar


Yok [Eklenebilir]

Video Format: Avi


Audio Video Interleave (.AVI)

Video Detay


MPEG-4, 1040Kbps, 1,52GB

imdb puanı


8,6 / 10,0 / 40,000

süre


209 dakika

Ses Kodek: MP3


MPEG-1 Audio Layer III (MP3)

Ses Detay


128 Kbps, 2 Kanal, 192Mb

Editör Puanı


7,3

Genislik Yukseklik


720-404

sürüm


h263 | Brrip Xvid





The Irishman 2019


Film Detayları

The Irishman, bir mafya tetikçisi olan Frank Sheeran’ın hayatına odaklanıyor. II. Dünya Savaşı'nda görev almış eski bir asker olan Frank Sheeran, yıllar boyu Bufalino suç örgütü için çalışmıştır. Birçok ünlü isim için dolandırıcılık, tetikçilik yapan ve ‘İrlandalı’ lakabı ile anılan Sheeran, aynı zamanda işçi sendikası memurudur. Frank Sheeran’ın hayatından kesitlerin sunulduğu filmde, Amerikan tarihinin en gizemli suç olaylarından biri olan işçi lideri Jimmy Hoffa'nın ortadan kayboluşuna da değiniliyor.

The Irishman (2019) Filmi Imdb'den 40,000 kişi tarafından oylandı ve 8,6 puan aldı. Bu film için editör puanı 7,3 olarak belirlendi. İyi Seyirler!


Teknik Detaylar


Kod:
General
Complete name                            : The.Irishman.2019.HDRip.XViD.TR.Filmbol.avi
Format                                   : AVI
Format/Info                              : Audio Video Interleave
File size                                : 1.73 GiB
Duration                                 : 3h 29mn
Overall bit rate                         : 1 181 Kbps

Video
ID                                       : 0
Format                                   : MPEG-4 Visual
Format profile                           : Advanced Simple@L5
Format settings, BVOP                    : 2
Format settings, QPel                    : No
Format settings, GMC                     : No warppoints
Format settings, Matrix                  : Default (MPEG)
Codec ID                                 : XVID
Codec ID/Hint                            : XviD
Duration                                 : 3h 29mn
Bit rate                                 : 1 040 Kbps
Width                                    : 720 pixels
Height                                   : 404 pixels
Display aspect ratio                     : 16:9
Frame rate                               : 24.000 fps
Color space                              : YUV
Chroma subsampling                       : 4:2:0
Bit depth                                : 8 bits
Scan type                                : Progressive
Compression mode                         : Lossy
Bits/(Pixel*Frame)                       : 0.149
Stream size                              : 1.52 GiB (88%)
Writing library                          : XviD 64

Audio
ID                                       : 1
Format                                   : MPEG Audio
Format version                           : Version 1
Format profile                           : Layer 3
Mode                                     : Joint stereo
Mode extension                           : MS Stereo
Codec ID                                 : 55
Codec ID/Hint                            : MP3
Duration                                 : 3h 29mn
Bit rate mode                            : Constant
Bit rate                                 : 128 Kbps
Channel(s)                               : 2 channels
Sampling rate                            : 48.0 KHz
Compression mode                         : Lossy
Stream size                              : 192 MiB (11%)
Alignment                                : Aligned on interleaves
Interleave, duration                     : 24 ms (0.58 video frame)

Film Detayları


The Irishman 2019

The Irishman 2019

The Irishman 2019


Film Fragmanı


Film Detayları

Brrip İndir



Uptobox ile indir

LetsUpload ile indir

Mega linki şuan da gizli. Kullanıma açmak için konuya yorum yapın ve ardından sayfayı yenileyin. Ayrıca bu linki açtığınızda reklamsız olarak erişebileceğinizi unutmayın.

Mega


Mediafire linki şuan da gizli. Kullanıma açmak için konuya yorum yapın ve ardından sayfayı yenileyin. Ayrıca bu linki açtığınızda reklamsız olarak erişebileceğinizi unutmayın.

Mediafire

 
Cevapla
  


Konu ile Alakalı Benzer Konular
Konular Yazar Yorumlar Okunma Son Yorum
Filmin Yayınlanma Tarihi: 2014 Kanunun Ötesinde (A Walk Among the Tombstones) Türkçe Dublaj Brrip-Xvid İndir BroserBros 1 713 12-12-2019, Saat: 06:52
Son Yorum: BroserBros
Filmin Yayınlanma Tarihi: 2016 Suikast (Mechanic: Resurrection) Türkçe Dublaj Brrip Xvid İndir BroserBros 1 1,076 09-12-2019, Saat: 01:32
Son Yorum: BroserBros
Filmin Yayınlanma Tarihi: 2019 Deprem Kuşu (Earthquake Bird) Türkçe Dublaj Brrip Xvid İndir BroserBros 0 74 24-11-2019, Saat: 06:07
Son Yorum: BroserBros
Filmin Yayınlanma Tarihi: 2019 The Laundromat (2019) Türkçe Dublaj Brrip Xvid İndir BroserBros 1 86 07-11-2019, Saat: 16:21
Son Yorum: komador06
Filmin Yayınlanma Tarihi: 2018 Sessiz Kalma (The Hate U Give) Türkçe Dublaj Brrip Xvid İndir BroserBros 1 150 26-10-2019, Saat: 08:38
Son Yorum: komador06

Hızlı Menü:


Browsing: 9 Ziyaretçi