Filmbol Forum Film İndir 1080P v The Irishman (2019) Türkçe Dublaj BLURAY m1080P İndir
Moderatör Alımları Başladı! Başvuru yapmak için tıklayın.
Filmbol Premium'da %50'e varan indirim fırsatı!
The Irishman (2019) Türkçe Dublaj BLURAY m1080P İndir
BroserBros
The Irishman (2019) Türkçe Dublaj BLURAY m1080P İndir
19
1394
  • Derecelendirme: 0/5 - 0 oy
  • 1
  • 2
  • 3
  • 4
  • 5
Konuyu Okuyanlar:1 Ziyaretçi
Şuan Online!
Filmin Yayınlanma Tarihi: 2019 
Şuan Online!
BroserBros Kurucu Admin
*******
Admin

indirme türü


Bulut + Premium

Vizyon Tarihi


27 Kasım 2019

Boyutlar


3,39

diller


[TR]

altyazilar


Yok [Eklenebilir]

Video Format: Mkv


Matroska (.MKV)

Video Detay


MPEG-4, 1931Kbps, 2,82GB

imdb puanı


8,6 / 10,0 / 40,000

süre


209 dakika

Ses Kodek: AC3


Audio Coding 3 (AC3)

Ses Detay


384 Kbps, 6 Kanal, 575Mb

Editör Puanı


7,3

Genislik Yukseklik


1920-1080

sürüm


x264 | 1080P




The Irishman 2019


Film Detayları

The Irishman, bir mafya tetikçisi olan Frank Sheeran’ın hayatına odaklanıyor. II. Dünya Savaşı'nda görev almış eski bir asker olan Frank Sheeran, yıllar boyu Bufalino suç örgütü için çalışmıştır. Birçok ünlü isim için dolandırıcılık, tetikçilik yapan ve ‘İrlandalı’ lakabı ile anılan Sheeran, aynı zamanda işçi sendikası memurudur. Frank Sheeran’ın hayatından kesitlerin sunulduğu filmde, Amerikan tarihinin en gizemli suç olaylarından biri olan işçi lideri Jimmy Hoffa'nın ortadan kayboluşuna da değiniliyor.

The Irishman (2019) Filmi Imdb'den 40,000 kişi tarafından oylandı ve 8,6 puan aldı. Bu film için editör puanı 7,3 olarak belirlendi. İyi Seyirler!


Teknik Detaylar


Kod :
General
Complete name                            : The.Irishman.2019.m1080p.BLURAY.NF.WEBRip.x264.TR.Filmbol.mkv
Format                                   : Matroska
Format version                           : Version 4 / Version 2
File size                                : 3.39 GiB
Duration                                 : 3h 29mn
Overall bit rate                         : 2 317 Kbps
Movie name                               : The Irishman (2019) - Filmbol.org
Encoded date                             : UTC 2019-11-28 04:53:26
Writing application                      : mkvmerge v35.0.0 ('All The Love In The World') 64-bit
Writing library                          : libebml v1.3.9 + libmatroska v1.5.2

Video
ID                                       : 1
Format                                   : AVC
Format/Info                              : Advanced Video Codec
Format profile                           : Main@L4
Format settings, CABAC                   : Yes
Format settings, ReFrames                : 2 frames
Codec ID                                 : V_MPEG4/ISO/AVC
Duration                                 : 3h 29mn
Bit rate                                 : 1 931 Kbps
Width                                    : 1 920 pixels
Height                                   : 1 080 pixels
Display aspect ratio                     : 16:9
Frame rate mode                          : Constant
Frame rate                               : 24.000 fps
Color space                              : YUV
Chroma subsampling                       : 4:2:0
Bit depth                                : 8 bits
Scan type                                : Progressive
Bits/(Pixel*Frame)                       : 0.039
Stream size                              : 2.82 GiB (83%)
Title                                    : 1080P - Filmbol.org
Default                                  : Yes
Forced                                   : No

Audio
ID                                       : 2
Format                                   : AC-3
Format/Info                              : Audio Coding 3
Mode extension                           : CM (complete main)
Format settings, Endianness              : Big
Codec ID                                 : A_AC3
Duration                                 : 3h 29mn
Bit rate mode                            : Constant
Bit rate                                 : 384 Kbps
Channel(s)                               : 6 channels
Channel positions                        : Front: L C R, Side: L R, LFE
Sampling rate                            : 48.0 KHz
Frame rate                               : 31.250 fps (1536 spf)
Compression mode                         : Lossy
Stream size                              : 575 MiB (17%)
Title                                    : Türkçe - Filmbol.org
Language                                 : Turkish
Default                                  : Yes
Forced                                   : No

Film Detayları


The Irishman 2019

The Irishman 2019

The Irishman 2019


Film Fragmanı


Film Detayları

Mini 1080P İndir


Uptobox ile indir

LetsUpload ile indir

Mega ile indir

MediaFire ile indir

Şuan Offine!
Şuan Offine!
rainman1972 Yeni Üye
*
Üye

  • Konular0
  • Mesajlar2
  • Rep puanı 0
tşk Wink
Şuan Offine!
Şuan Offine!
caner Süper Üye
***
Super Üye

  • Konular0
  • Mesajlar52
  • Rep puanı 0
teşekkürler
Şuan Offine!
Şuan Offine!
20NM18 Yeni Üye
*
Üye

  • Konular0
  • Mesajlar2
  • Rep puanı 0
SÜPER.
Şuan Offine!
Şuan Offine!
dejavu Uzman Üye
**
Uzman Üye

  • Konular2
  • Mesajlar18
  • Rep puanı 0
yeni keşfettim sayfayı bakalım nasıl
Şuan Offine!
Şuan Offine!
muda Uzman Üye
**
Uzman Üye

  • Konular0
  • Mesajlar8
  • Rep puanı 0
tskler emegine saglık
Şuan Offine!
Şuan Offine!
dl.emr Yeni Üye
*
Üye

  • Konular0
  • Mesajlar1
  • Rep puanı 0
süperrrrr
Şuan Offine!
Şuan Offine!
fantomx Yeni Üye
*
Üye

  • Konular0
  • Mesajlar4
  • Rep puanı 0
MÜKEMMEL
Şuan Offine!
Şuan Offine!
lejoner Yeni Üye
*
Üye

  • Konular0
  • Mesajlar1
  • Rep puanı 0
teşekkürler
Şuan Offine!
Şuan Offine!
iambisar Uzman Üye
**
Uzman Üye

  • Konular0
  • Mesajlar22
  • Rep puanı 0
teşekkürler


Konu ile Alakalı Benzer Konular
Konular Yazar Yorumlar Okunma Son Yorum
Filmin Yayınlanma Tarihi: 2018
Örümcek Adam: Örümcek Evreninde (Spider-Man) Türkçe Dublaj BLURAY m1080P İndir BroserBros 32 1,995 11 saat önce
Son Yorum: awddwadadwad
Filmin Yayınlanma Tarihi: 2019
Kelly Çetesi'nin Gerçek Hikayesi (True History of the Kelly Gang) - 2019 - TR+ORG - 1080P BroserBros 0 77 11-07-2020, Saat: 20:24
Son Yorum: BroserBros
Filmin Yayınlanma Tarihi: 2019
İçerideki Adam: Muhbir (Inside Man: Most Wanted) - 2019 - TR+ORG - 1080P BroserBros 0 78 11-07-2020, Saat: 20:11
Son Yorum: BroserBros
Filmin Yayınlanma Tarihi: 2019
Travma Merkezi (Trauma Center) - 2019 - TR+ORG - 1080P BroserBros 0 38 10-07-2020, Saat: 22:53
Son Yorum: BroserBros
Filmin Yayınlanma Tarihi: 2019
Hustlers (Hustlers) - 2019 - TR+ORG - 1080P BroserBros 0 38 10-07-2020, Saat: 22:30
Son Yorum: BroserBros

Hızlı Menü: