Hoşgeldin, Ziyaretçi: Giriş Yap Üye Ol


stats
Adblock'u kapattıysanız tıklayın.
Hoşgeldiniz!
Filmbol'u tercih ettiğiniz için teşekkürler, ancak ablock kullanarak devam edemezsiniz.
Merak etmeyin. Heryerden ardı ardına çıkan reklamlar görmeyeceksiniz :)

Sadece site içi 1 reklam göreceksin ve bu site gezintini etkilemeyecek.
Konuyu Oyla:
  • Derecelendirme: 0/5 - 0 oy
  • 1
  • 2
  • 3
  • 4
  • 5
Title: The Highwaymen (2019) Türkçe Dublaj Brrip Xvid İndir
Gösterim Stili
#1
Filmin Yayınlanma Tarihi: 2019 

indirme türü


Bulut + Premium

vizyon tarihi


29 Mayıs 2019

Boyutlar


1,59

diller


[TR]

altyazilar


KISIM [Eklenebilir]

Video Format: Avi


Audio Video Interleave (.AVI)

Video Detay


MPEG-4, 1593 Kbps, 1,47 GB

imdb puanı


7,0/ 10,0 / 50,000

süre


132 dakika

Ses Kodek: MP3


MPEG-1 Audio Layer III (MP3)

Ses Detay


128 Kbps, 2 Kanal, 121 Mb

Editör Puanı


7,0

Genislik Yukseklik


720-304

sürüm


h263 | Brrip Xvid



Film Detayları

FBI, bazı azılı suçluları yakalama konusunda sıkıntı çekmektedir. Devlet bu durum için yeni alternatifler ararlar ve bu iş için en iyi kişilerin, zaten suçlu olanlar ve suç işlemekten vazgeçenler olduğunu anlarlar. FBI bu ikiliyi rahat bırakıp, suçluları yakalama konusun da ancak onlara güvenir.

The Highwaymen Filmi Imdb'den 50,000 kişi tarafından oylandı ve 7,0 puan aldı. Bu film için editör puanı 7,0 olarak belirlendi. İyi Seyirler!


Teknik Detaylar

Kod:
General
Complete name                            : The.Highwaymen.2019.WEBRip.XviD.TR.Filmbol.avi
Format                                   : AVI
Format/Info                              : Audio Video Interleave
File size                                : 1.60 GiB
Duration                                 : 2h 12mn
Overall bit rate                         : 1 734 Kbps

Video
ID                                       : 0
Format                                   : MPEG-4 Visual
Format profile                           : Simple@L5
Format settings, BVOP                    : No
Format settings, QPel                    : No
Format settings, GMC                     : No warppoints
Format settings, Matrix                  : Default (H.263)
Codec ID                                 : XVID
Codec ID/Hint                            : XviD
Duration                                 : 2h 12mn
Bit rate                                 : 1 593 Kbps
Width                                    : 720 pixels
Height                                   : 304 pixels
Display aspect ratio                     : 2.40:1
Frame rate                               : 24.000 fps
Color space                              : YUV
Chroma subsampling                       : 4:2:0
Bit depth                                : 8 bits
Scan type                                : Progressive
Compression mode                         : Lossy
Bits/(Pixel*Frame)                       : 0.303
Stream size                              : 1.47 GiB (92%)
Writing library                          : Lavc58.1.100

Audio
ID                                       : 1
Format                                   : MPEG Audio
Format version                           : Version 1
Format profile                           : Layer 3
Mode                                     : Joint stereo
Mode extension                           : MS Stereo
Codec ID                                 : 55
Codec ID/Hint                            : MP3
Duration                                 : 2h 12mn
Bit rate mode                            : Constant
Bit rate                                 : 128 Kbps
Channel(s)                               : 2 channels
Sampling rate                            : 48.0 KHz
Compression mode                         : Lossy
Stream size                              : 121 MiB (7%)
Alignment                                : Aligned on interleaves
Interleave, duration                     : 24 ms (0.58 video frame)



Film Detayları


The Highwaymen turkce dublaj indir

The Highwaymen turkce dublaj indir

The Highwaymen turkce dublaj indir

The Highwaymen turkce dublaj indir

The Highwaymen turkce dublaj indir


Film Fragmanı


Film Detayları

Brrip İndir


Turbobit İle İndir

Uptobox ile indir

Tusfiles ile indir

Filerio ile indir

LetsUpload ile indir

MegaUp ile indir

Filmbol'da aşağıdaki linkler sadece üyelere sunulur. Ayrıca bu linklerde link kısaltma servisleri kullanılmaz, linke tek tık ile reklamsız erişirsiniz. Konu'ya yorum yapın ve sayfayı yenileyin. Reklamsız linkler (en az 3 en fazla 5 link) açılmış olacaktır. Not: Filmbol'a üye olmak tamamen ücretsizdir, en az 3 link kuralı 01.07.2019 tarihinden sonraki paylaşımlar için geçerlidir. Ancak çoğu film için en az bir premium link her zaman bulunur.

Mega

Dosyaco

Dosyaupload

Mediafire

Google Drive
 
Cevapla
  


Konu ile Alakalı Benzer Konular
Konular Yazar Yorumlar Okunma Son Yorum
Filmin Yayınlanma Tarihi: 2018 Sessiz Kalma (The Hate U Give) Türkçe Dublaj Brrip Xvid İndir BroserBros 0 85 20-08-2019, Saat: 11:07
Son Yorum: BroserBros
Filmin Yayınlanma Tarihi: 2019 Shaft (Shaft) Türkçe Dublaj Brrip-Xvid İndir BroserBros 0 149 05-07-2019, Saat: 21:56
Son Yorum: BroserBros
Filmin Yayınlanma Tarihi: 2015 Sicario (Sicario) Türkçe Dublaj Brrip-Xvid İndir BroserBros 1 1,343 11-01-2019, Saat: 03:14
Son Yorum: mehmetemin
Filmin Yayınlanma Tarihi: 2018 Öldürme Arzusu (Death Wish) Türkçe Dublaj Brrip-Xvid İndir BroserBros 1 780 13-12-2018, Saat: 17:03
Son Yorum: rainbowdivx
Filmin Yayınlanma Tarihi: 2018 İntikam: Bir Aşk Hikayesi (Vengeance: A Love Story) Türkçe Dublaj Brrip-Xvid İndir BroserBros 0 447 03-08-2018, Saat: 20:03
Son Yorum: BroserBros

Hızlı Menü:


Browsing: 1 Ziyaretçi