Hoşgeldin, Ziyaretçi: Giriş Yap Üye Ol


Konuyu Oyla:
  • Derecelendirme: 0/5 - 0 oy
  • 1
  • 2
  • 3
  • 4
  • 5
Title: The Highwaymen (2019) Türkçe Dublaj BLURAY m720P İndir
Gösterim Stili
#1
Filmin Yayınlanma Tarihi: 2019 

indirme türü


Bulut + Premium

vizyon tarihi


29 Mayıs 2019

Boyutlar


1,53

diller


[TR]

altyazilar


KISIM [Eklenebilir]

Video Format: Mkv


Matroska (.MKV)

Video Detay


MPEG-4, 1276 Kbps, 1,18 GB

imdb puanı


7,0/ 10,0 / 50,000

süre


132 dakika

Ses Kodek: AC3


Audio Coding 3 (AC3)

Ses Detay


384 Kbps, 6 Kanal, 363 Mb

Editör Puanı


7,0

Genislik Yukseklik


1280-720

sürüm


x264 | NF-WEBDL-720P


Film Detayları

FBI, bazı azılı suçluları yakalama konusunda sıkıntı çekmektedir. Devlet bu durum için yeni alternatifler ararlar ve bu iş için en iyi kişilerin, zaten suçlu olanlar ve suç işlemekten vazgeçenler olduğunu anlarlar. FBI bu ikiliyi rahat bırakıp, suçluları yakalama konusun da ancak onlara güvenir.

The Highwaymen Filmi Imdb'den 50,000 kişi tarafından oylandı ve 7,0 puan aldı. Bu film için editör puanı 7,0 olarak belirlendi. İyi Seyirler!


Teknik Detaylar

Kod:
General
Complete name                            : The.Highwaymen.2019.m720p.NF.WEB-DL.x264.TR.Filmbol.mkv
Format                                   : Matroska
Format version                           : Version 4 / Version 2
File size                                : 1.54 GiB
Duration                                 : 2h 12mn
Overall bit rate                         : 1 662 Kbps
Movie name                               : The Highwaymen (2019) - Filmbol.org
Encoded date                             : UTC 2019-07-17 11:39:32
Writing application                      : mkvmerge v35.0.0 ('All The Love In The World') 64-bit
Writing library                          : libebml v1.3.9 + libmatroska v1.5.2

Video
ID                                       : 1
Format                                   : AVC
Format/Info                              : Advanced Video Codec
Format profile                           : Main@L3.1
Format settings, CABAC                   : Yes
Format settings, ReFrames                : 2 frames
Codec ID                                 : V_MPEG4/ISO/AVC
Duration                                 : 2h 12mn
Bit rate                                 : 1 276 Kbps
Width                                    : 1 280 pixels
Height                                   : 720 pixels
Display aspect ratio                     : 16:9
Frame rate mode                          : Constant
Frame rate                               : 24.000 fps
Color space                              : YUV
Chroma subsampling                       : 4:2:0
Bit depth                                : 8 bits
Scan type                                : Progressive
Bits/(Pixel*Frame)                       : 0.058
Stream size                              : 1.18 GiB (77%)
Title                                    : 720P - Filmbol.org
Default                                  : Yes
Forced                                   : No

Audio
ID                                       : 2
Format                                   : AC-3
Format/Info                              : Audio Coding 3
Mode extension                           : CM (complete main)
Format settings, Endianness              : Big
Codec ID                                 : A_AC3
Duration                                 : 2h 12mn
Bit rate mode                            : Constant
Bit rate                                 : 384 Kbps
Channel(s)                               : 6 channels
Channel positions                        : Front: L C R, Side: L R, LFE
Sampling rate                            : 48.0 KHz
Frame rate                               : 31.250 fps (1536 spf)
Compression mode                         : Lossy
Stream size                              : 363 MiB (23%)
Title                                    : Türkçe - Filmbol.org
Language                                 : Turkish
Default                                  : Yes
Forced                                   : No

Text
ID                                       : 3
Format                                   : UTF-8
Codec ID                                 : S_TEXT/UTF8
Codec ID/Info                            : UTF-8 Plain Text
Duration                                 : 2h 11mn
Bit rate                                 : 1 bps
Count of elements                        : 30
Stream size                              : 1.29 KiB (0%)
Title                                    : KISIM
Language                                 : Turkish
Default                                  : Yes
Forced                                   : Yes



Film Detayları


The Highwaymen turkce dublaj indir

The Highwaymen turkce dublaj indir

The Highwaymen turkce dublaj indir

The Highwaymen turkce dublaj indir

The Highwaymen turkce dublaj indir


Film Fragmanı


Film Detayları

Mini 720P İndir


Uptobox ile indir

LetsUpload ile indir

Mega Upload ile indir


Mega linki şuan da gizli. Kullanıma açmak için konuya yorum yapın ve ardından sayfayı yenileyin. Ayrıca bu linki açtığınızda reklamsız olarak erişebileceğinizi unutmayın.

Mega


j6hm
 
Cevapla
#2
Teşekkürler
 
Cevapla
#3
Big Grin Big Grin teşekkürler
 
Cevapla
  


Konu ile Alakalı Benzer Konular
Konular Yazar Yorumlar Okunma Son Yorum
Filmin Yayınlanma Tarihi: 2016 Para Tuzağı (Money Monster) Türkçe Dublaj m720P İndir BroserBros 3 838 16-02-2020, Saat: 14:41
Son Yorum: vago
Filmin Yayınlanma Tarihi: 2019 Uncut Gems (2019) Türkçe Dublaj BLURAY 720P İndir BroserBros 1 57 11-02-2020, Saat: 17:38
Son Yorum: Yusuf Selahattin
Filmin Yayınlanma Tarihi: 2017 Darphane Soygunu (Coin Heist) Türkçe Dublaj m720P İndir BroserBros 1 786 26-01-2020, Saat: 19:05
Son Yorum: draydinozkan
Filmin Yayınlanma Tarihi: 2019 The Irishman (2019) Türkçe Dublaj BLURAY m720P İndir BroserBros 27 1,113 25-01-2020, Saat: 23:35
Son Yorum: ghostkronos24
Filmin Yayınlanma Tarihi: 2018 Öldürme Arzusu (Death Wish) Türkçe Dublaj m720P İndir BroserBros 2 861 23-12-2019, Saat: 15:45
Son Yorum: gonenoya

Hızlı Menü:


Browsing: 1 Ziyaretçi