Filmbol Forum Film İndir UHD - ULTRA HD - 4K v Terminatör: Kara Kader (Terminator: Dark Fate) türkçe Dublaj BLURAY DUAL 4K indir
Mega linklerinin şikayet edilmemesi için global erişime kapatıp sadece yorum yapanlara açıyoruz. Bu linkleri gizleme işlemini mecburen yapıyoruz ve yorum yapmanızın siteye değil size faydası vardır. Teşekürler yazmayı çok görüp, Random/Spam mesajlar atarak Mega linklerini açmaya çalışan kullanıcılara önce süresiz ban, devam ederse IP ban atacağız.
Filmbol'da moderatör olmak ister misiniz? Bizimle iletişime geçmek için tıklayın!
Terminatör: Kara Kader (Terminator: Dark Fate) türkçe Dublaj BLURAY DUAL 4K indir
BroserBros
Terminatör: Kara Kader (Terminator: Dark Fate) türkçe Dublaj BLURAY DUAL 4K indir
3
397
  • Derecelendirme: 0/5 - 0 oy
  • 1
  • 2
  • 3
  • 4
  • 5
Konuyu Okuyanlar:1 Ziyaretçi
Şuan Online!
Filmin Yayınlanma Tarihi: 2019 
WWW
Şuan Online!
BroserBros Kurucu Admin
*******
Admin








 Terminatör: Kara Kader



Terminatör: Kara Kader, gelecekten gelen Terminatörlere karşı zorlu bir mücadeleye giren Sarah Connor'ın hikayesini konu ediyor. Sarah Conor'ın Mahşet Günü'nü engellemesinin ve insan ırkının kaderini yeniden belirlemesinin üzerinden yıllar geçmiştir. Dani Ramos, kardeşi ve babasıyla ile birlikte Mexico City'de kendi halinde yaşayan bir kadındır. Ancak gelecekten süper asker özelliklerine sahip olan Rev-9 adındaki yeni bir Terminatör, Dani'yi öldürmek üzere geçmişe gelir. Dani'nin kurtulma şansı, Grace ve Sarah Conor'a bağlıdır. Grace de gelecekten gelen bir süper askerdir. Bu sırada Rev-9, hiçbir şeyi umursamadan hedefine giden yolda karşısına çıkan her şeyi yok ediyordur. Dani, Grace ve Sarah'nın yolu sonunda T-800'e düşecektir. Sarah'nın geçmişi, onların tek umudu olur.

Terminatör: Kara Kader (2019) (Terminator: Dark Fate) Filmi Imdb'den 91,600 kişi tarafından oylandı ve 6,3 puan aldı. Bu film için editör puanı 7,0 olarak belirlendi. İyi Seyirler!

Teknik Detaylar

Kod :
General
Unique ID                                : 138059502435983444226334532257649283545 (0x67DD4B010E630078C9CC3C53B1E051D9)
Complete name                            : /root/Desktop/1/Terminator.Kara.Kader.2019.4K.2160p.BluRay.x265.DUAL.TR-ENG.Filmbol.mkv
Format                                   : Matroska
Format version                           : Version 4 / Version 2
File size                                : 4.51 GiB
Duration                                 : 2h 8mn
Overall bit rate                         : 5 045 Kbps
Movie name                               : Terminator Kara Kader (2019) - Filmbol.org
Encoded date                             : UTC 2020-02-12 09:06:28
Writing application                      : mkvmerge v35.0.0 ('All The Love In The World') 64-bit
Writing library                          : libebml v1.3.9 + libmatroska v1.5.2

Video
ID                                       : 1
Format                                   : HEVC
Format/Info                              : High Efficiency Video Coding
Format profile                           : Main [email protected]@Main
Codec ID                                 : V_MPEGH/ISO/HEVC
Duration                                 : 2h 8mn
Bit rate                                 : 4 276 Kbps
Width                                    : 3 840 pixels
Height                                   : 2 160 pixels
Display aspect ratio                     : 16:9
Frame rate mode                          : Variable
Frame rate                               : 23.976 fps
Color space                              : YUV
Chroma subsampling                       : 4:2:0
Bit depth                                : 10 bits
Bits/(Pixel*Frame)                       : 0.022
Stream size                              : 3.83 GiB (85%)
Title                                    : 2160P - Filmbol.org
Writing library                          : x265 3.2+35-acc5d16999e2:[Linux][GCC 7.4.0][64 bit] 10bit
Encoding settings                        : cpuid=1111039 / frame-threads=3 / wpp / no-pmode / no-pme / no-psnr / no-ssim / log-level=2 / input-csp=1 / input-res=3840x2160 / interlace=0 / total-frames=0 / level-idc=0 / high-tier=1 / uhd-bd=0 / ref=4 / no-allow-non-conformance / repeat-headers / annexb / no-aud / no-hrd / info / hash=0 / no-temporal-layers / open-gop / min-keyint=23 / keyint=250 / gop-lookahead=0 / bframes=4 / b-adapt=2 / b-pyramid / bframe-bias=0 / rc-lookahead=25 / lookahead-slices=4 / scenecut=40 / hist-scenecut=0 / radl=0 / no-splice / no-intra-refresh / ctu=64 / min-cu-size=8 / rect / no-amp / max-tu-size=32 / tu-inter-depth=1 / tu-intra-depth=1 / limit-tu=0 / rdoq-level=2 / dynamic-rd=0.00 / no-ssim-rd / signhide / no-tskip / nr-intra=0 / nr-inter=0 / no-constrained-intra / strong-intra-smoothing / max-merge=3 / limit-refs=3 / limit-modes / me=3 / subme=3 / merange=57 / temporal-mvp / no-frame-dup / no-hme / weightp / no-weightb / no-analyze-src-pics / deblock=0:0 / sao / no-sao-non-deblock / rd=4 / selective-sao=4 / no-early-skip / rskip / no-fast-intra / no-tskip-fast / no-cu-lossless / no-b-intra / no-splitrd-skip / rdpenalty=0 / psy-rd=2.00 / psy-rdoq=1.00 / no-rd-refine / no-lossless / cbqpoffs=0 / crqpoffs=0 / rc=crf / crf=22.0 / qcomp=0.60 / qpstep=4 / stats-write=0 / stats-read=0 / ipratio=1.40 / pbratio=1.30 / aq-mode=2 / aq-strength=1.00 / cutree / zone-count=0 / no-strict-cbr / qg-size=32 / no-rc-grain / qpmax=69 / qpmin=0 / no-const-vbv / sar=1 / overscan=0 / videoformat=5 / range=0 / colorprim=9 / transfer=16 / colormatrix=9 / chromaloc=0 / display-window=0 / master-display=G(13250,34500)B(7500,3000)R(34000,16000)WP(15635,16450)L(10000000,1) / cll=1000,446 / min-luma=0 / max-luma=1023 / log2-max-poc-lsb=8 / vui-timing-info / vui-hrd-info / slices=1 / no-opt-qp-pps / no-opt-ref-list-length-pps / no-multi-pass-opt-rps / scenecut-bias=0.05 / hist-threshold=0.01 / no-opt-cu-delta-qp / no-aq-motion / hdr10 / no-hdr10-opt / no-dhdr10-opt / no-idr-recovery-sei / analysis-reuse-level=0 / analysis-save-reuse-level=0 / analysis-load-reuse-level=0 / scale-factor=0 / refine-intra=0 / refine-inter=0 / refine-mv=1 / refine-ctu-distortion=0 / no-limit-sao / ctu-info=0 / no-lowpass-dct / refine-analysis-type=0 / copy-pic=1 / max-ausize-factor=1.0 / no-dynamic-refine / no-single-sei / no-hevc-aq / no-svt / no-field / qp-adaptation-range=1.00 / no-scenecut-aware-qpconformance-window-offsets / right=0 / bottom=0
Default                                  : Yes
Forced                                   : No
Color range                              : Limited
Color primaries                          : BT.2020
Matrix coefficients                      : BT.2020 non-constant

Audio #1
ID                                       : 2
Format                                   : AC-3
Format/Info                              : Audio Coding 3
Mode extension                           : CM (complete main)
Format settings, Endianness              : Big
Codec ID                                 : A_AC3
Duration                                 : 2h 8mn
Bit rate mode                            : Constant
Bit rate                                 : 384 Kbps
Channel(s)                               : 6 channels
Channel positions                        : Front: L C R, Side: L R, LFE
Sampling rate                            : 48.0 KHz
Frame rate                               : 31.250 fps (1536 spf)
Compression mode                         : Lossy
Stream size                              : 352 MiB (8%)
Title                                    : Türkçe - Filmbol.org
Language                                 : Turkish
Default                                  : Yes
Forced                                   : No

Audio #2
ID                                       : 3
Format                                   : AAC
Format/Info                              : Advanced Audio Codec
Format profile                           : LC
Codec ID                                 : A_AAC
Duration                                 : 2h 8mn
Bit rate                                 : 384 Kbps
Channel(s)                               : 6 channels
Channel positions                        : Front: L C R, Side: L R, LFE
Sampling rate                            : 48.0 KHz
Frame rate                               : 46.875 fps (1024 spf)
Compression mode                         : Lossy
Stream size                              : 351 MiB (8%)
Title                                    : İngilizce - Filmbol.org
Default                                  : No
Forced                                   : No

Text #1
ID                                       : 4
Format                                   : UTF-8
Codec ID                                 : S_TEXT/UTF8
Codec ID/Info                            : UTF-8 Plain Text
Duration                                 : 1h 47mn
Bit rate                                 : 0 bps
Count of elements                        : 10
Stream size                              : 255 Bytes (0%)
Title                                    : KISIM
Language                                 : Turkish
Default                                  : Yes
Forced                                   : Yes

Text #2
ID                                       : 5
Format                                   : UTF-8
Codec ID                                 : S_TEXT/UTF8
Codec ID/Info                            : UTF-8 Plain Text
Duration                                 : 2h 7mn
Bit rate                                 : 31 bps
Count of elements                        : 1247
Stream size                              : 29.7 KiB (0%)
Title                                    : FULL
Language                                 : Turkish
Default                                  : No
Forced                                   : No

Film Detayları


 Terminatör: Kara Kader

 Terminatör: Kara Kader

 Terminatör: Kara Kader


Film Fragmanı


Film Detayları


Uptobox ile indir

1Fichier ile indir

1Fichier'den İndiremiyor musun? Tıklayın!


Mega linki şuan da gizli. Kullanıma açmak için konuya yorum yapın ve ardından sayfayı yenileyin.

Mega


MediaFire ile indir

Şuan Offine!
Şuan Offine!
Hellenger28 Uzman Üye
**
Uzman Üye

  • Konular0
  • Mesajlar15
  • Rep puanı 0
Güzell
Şuan Offine!
Şuan Offine!
k006 Yeni Üye
*
Üye

  • Konular0
  • Mesajlar5
  • Rep puanı 0
Terminatör 2 den sonra ki en iyi terminatör filmi
Şuan Offine!
Şuan Offine!
kartal2552 Yeni Üye
*
Üye

  • Konular0
  • Mesajlar2
  • Rep puanı 0
tşk ederim


Konu ile Alakalı Benzer Konular
Konular Yazar Yorumlar Okunma Son Yorum
Filmin Yayınlanma Tarihi: 2017
Hızlı ve Öfkeli 8 (The Fate of the Furious) - 2017 - TR+ORG - UHD (4K) - 10Bit-x265 | tt4630562 TheSteeL 0 44 22-02-2021, Saat: 19:11
Son Yorum: TheSteeL
Filmin Yayınlanma Tarihi: 2019
X-Men: Dark Phoenix (2019) TR+ORG - UHD - 4K | tt6565702 BroserBros 0 58 15-02-2021, Saat: 19:57
Son Yorum: BroserBros
Filmin Yayınlanma Tarihi: 2018
Black Panther (Kara Panter) - 2018 - TR+ORG - UHD x265 - 10Bit (4K) BroserBros 0 287 12-05-2020, Saat: 21:11
Son Yorum: BroserBros
Filmin Yayınlanma Tarihi: 2019
Korku Hikâyeleri (Scary Stories to Tell in the Dark) - 2019 - TR+ENG - UHD (4K) | tt3387520 BroserBros 0 342 15-04-2020, Saat: 17:09
Son Yorum: BroserBros
Filmin Yayınlanma Tarihi: 2007
Ben Efsaneyim (I Am Legend) Türkçe Dublaj BLURAY DUAL 4K indir BroserBros 0 329 24-03-2020, Saat: 21:18
Son Yorum: BroserBros

Hızlı Menü: