Filmbol Forum Film İndir BRRip XviD v Tehlikeli Yürüyüş (The Walk) - 2015 - TR - BRRip XviD
Tehlikeli Yürüyüş (The Walk) - 2015 - TR - BRRip XviD
BroserBros
Tehlikeli Yürüyüş (The Walk) - 2015 - TR - BRRip XviD
0
171
  • Derecelendirme: 0/5 - 0 oy
  • 1
  • 2
  • 3
  • 4
  • 5
Konuyu Okuyanlar:1 Ziyaretçi
Şuan Online!
Filmin Yayınlanma Tarihi: 2015 
Şuan Online!
BroserBros Kurucu Admin
*******
Admin

Vizyon Tarihi


09 Ekim 2015

imdb puanı


7,3 / 120,000

süre


123 dakika

Editör Puanı


7,5 / 10

Video Format: Avi


Audio Video Interleave (.AVI)

Ses Kodek: MP3


MPEG-1 Audio Layer III (MP3)

sürüm


h263 | BRRip XviD

Boyutlar


1,37 GB



 Tehlikeli Yürüyüş



Fransız bir ip cambazı bir hayal kurar; dünyanın ticari kalbi olan ikiz kulelerin arasına bir ip gererek orada yürümek. Bu onun için ip cambazlığına başladığı günden beridir gerçekleştirmek istediği tek şeydir. Ancak bu durumun riski sadece kendisi için değildir, buradaki güvenlik için de bu durum büyük bir problem olduğundan, istediği zaman yapabileceği bir şey değildir. Neyse ki bir gün tüm riskleri alıp, hayalini gerçekleştirmeye çalışacaktır...

Tehlikeli Yürüyüş (2015) (The Walk) Filmi Imdb'den 120,000 kişi tarafından oylandı ve 7,3 puan aldı. Bu film için editör puanı 7,5 olarak belirlendi. İyi Seyirler!

Teknik Detaylar

Kod :
General
Complete name                            : /root/Desktop/8/Tehlikeli.Yürüyüş.2015.BRRip.XviD.TR.Filmbol.avi
Format                                  : AVI
Format/Info                              : Audio Video Interleave
Format profile                          : OpenDML
Format settings                          : rec
File size                                : 1.37 GiB
Duration                                : 2h 3mn
Overall bit rate                        : 1 589 Kbps
Writing application                      : AVI-Mux GUI 1.17.8.3, Feb 16 201019:42:50

Video
ID                                      : 0
Format                                  : MPEG-4 Visual
Format profile                          : Advanced Simple@L5
Format settings, BVOP                    : 2
Format settings, QPel                    : No
Format settings, GMC                    : No warppoints
Format settings, Matrix                  : Default (H.263)
Codec ID                                : XVID
Codec ID/Hint                            : XviD
Duration                                : 2h 3mn
Bit rate                                : 1 452 Kbps
Width                                    : 720 pixels
Height                                  : 304 pixels
Display aspect ratio                    : 2.35:1
Frame rate                              : 23.976 (24000/1001) fps
Color space                              : YUV
Chroma subsampling                      : 4:2:0
Bit depth                                : 8 bits
Scan type                                : Progressive
Compression mode                        : Lossy
Bits/(Pixel*Frame)                      : 0.277
Stream size                              : 1.25 GiB (91%)
Writing library                          : XviD 1.2.1 (UTC 2008-12-04)

Audio
ID                                      : 1
Format                                  : MPEG Audio
Format version                          : Version 1
Format profile                          : Layer 3
Mode                                    : Joint stereo
Codec ID                                : 55
Codec ID/Hint                            : MP3
Duration                                : 2h 3mn
Bit rate mode                            : Constant
Bit rate                                : 128 Kbps
Channel(s)                              : 2 channels
Sampling rate                            : 48.0 KHz
Compression mode                        : Lossy
Stream size                              : 113 MiB (8%)
Alignment                                : Aligned on interleaves
Interleave, duration                    : 24 ms (0.58 video frame)
Interleave, preload duration            : 192 ms
Title                                    : The.Walk.2015.TR

Film Detayları


 Tehlikeli Yürüyüş

 Tehlikeli Yürüyüş

 Tehlikeli Yürüyüş


Film Fragmanı


Film Detayları


Uptobox ile indir

1Fichier ile indir

1Fichier'den İndiremiyor musun? Tıklayın!


Mega ile indir

Bunun için üzgünüz ancak, bu linke sadece premium üyeler erişebilir.

Filmbol Cloud



Konu ile Alakalı Benzer Konular
Konular Yazar Yorumlar Okunma Son Yorum
Filmin Yayınlanma Tarihi: 2014
Transformers: Kayıp Çağ (Transformers: Age of Extinction) - 2014 - TR - BRRip XviD BroserBros 0 22 , Saat: 23:15
Son Yorum: BroserBros
Filmin Yayınlanma Tarihi: 2019
Queen & Slim (Queen ve Slim) - 2019 - TR - BRRip XviD BroserBros 0 18 , Saat: 22:53
Son Yorum: BroserBros
Filmin Yayınlanma Tarihi: 2015
Minyonlar (Minions) - 2015 - TR - BRRip XviD BroserBros 0 6 , Saat: 22:34
Son Yorum: BroserBros
Filmin Yayınlanma Tarihi: 2014
Herkül: Özgürlük Savaşçısı (Hercules) - 2014 - TR - BRRip XviD BroserBros 0 11 , Saat: 18:14
Son Yorum: BroserBros
Filmin Yayınlanma Tarihi: 2017
Justice League: Adalet Birliği (Justice League) - 2017 - TR - BRRip XviD BroserBros 1 31 , Saat: 16:59
Son Yorum: sectechno

Hızlı Menü: