Hoşgeldin, Ziyaretçi: Giriş Yap Üye Ol


Konuyu Oyla:
  • Derecelendirme: 5/5 - 1 oy
  • 1
  • 2
  • 3
  • 4
  • 5
Title: Taxi 5 (2018) Türkçe Dublaj m1080P İndir
Gösterim Stili
#1
Filmin Yayınlanma Tarihi: 2018 

indirme türü


Bulut + Premium

vizyon tarihi


04 Mayıs 2018

Boyutlar


1,51

diller


[TR]

altyazilar


Yok [Eklenebilir]

Video Format: Mkv


Matroska (.MKV)

Video Detay


MPEG-4, 2078 Kbps, 1,38 GB

imdb puanı


5,3 / 10,0 / 2,000

süre


102 dakika

Ses Kodek: AC3


Audio Coding 3 (AC3)

Ses Detay


128 Kbps, 2 Kanal, 131 Mb

rarsifresi


Filmbol.org

Editör Puanı


5,0

Genislik Yukseklik


1920x860

sürüm


x264 | 1080P


Film Detayları

Marsilya polis müdürlüğüne atanan bir polis memuru, bir ferrari ve onun manyak soyguncu sürücüsünü durdurmak üzere görevlendirildi

Taxi 5 (Taxi Five) Filmi İmdb'den 2,000 kişi tarafından oylandı ve 5,3 puan aldı. Bu film için editör puanı 5,0 olarak belirlendi. İyi Seyirler!


Teknik Detaylar

Kod:
General
Complete name                            : Taxi.5.2018.1080P.HDTV.x264.TR.mkv
Format                                   : Matroska
Format version                           : Version 4 / Version 2
File size                                : 1.51 GiB
Duration                                 : 1 h 35 min
Overall bit rate                         : 2 272 kb/s
Movie name                               : Taxi 5 - Filmbol.org
Encoded date                             : UTC 2018-07-16 08:29:12
Writing application                      : mkvmerge v15.0.0 ('Duel with the Devil') 64-bit
Writing library                          : libebml v1.3.5 + libmatroska v1.4.7

Video
ID                                       : 1
Format                                   : AVC
Format/Info                              : Advanced Video Codec
Format profile                           : Main@L4
Format settings                          : CABAC / 2 Ref Frames
Format settings, CABAC                   : Yes
Format settings, ReFrames                : 2 frames
Codec ID                                 : V_MPEG4/ISO/AVC
Duration                                 : 1 h 35 min
Bit rate                                 : 2 078 kb/s
Width                                    : 1 920 pixels
Height                                   : 860 pixels
Display aspect ratio                     : 2.25:1
Frame rate mode                          : Constant
Frame rate                               : 25.000 FPS
Color space                              : YUV
Chroma subsampling                       : 4:2:0
Bit depth                                : 8 bits
Scan type                                : Progressive
Bits/(Pixel*Frame)                       : 0.050
Stream size                              : 1.38 GiB (91%)
Title                                    : 1080P - Filmbol.org
Default                                  : Yes
Forced                                   : No

Audio
ID                                       : 2
Format                                   : AC-3
Format/Info                              : Audio Coding 3
Codec ID                                 : A_AC3
Duration                                 : 1 h 35 min
Bit rate mode                            : Constant
Bit rate                                 : 192 kb/s
Channel(s)                               : 2 channels
Channel positions                        : Front: L R
Sampling rate                            : 48.0 kHz
Frame rate                               : 31.250 FPS (1536 SPF)
Bit depth                                : 16 bits
Compression mode                         : Lossy
Stream size                              : 131 MiB (8%)
Title                                    : Türkçe - Filmbol.org
Service kind                             : Complete Main
Default                                  : Yes
Forced                                   : No



Film Detayları


Taxi 5 

Taxi 5 

Taxi 5 

Taxi 5 

Taxi 5 


Film Fragmanı


Film Detayları

Mini 1080P İndir


Mega linki şuan da gizli. Kullanıma açmak için konuya yorum yapın ve ardından sayfayı yenileyin. Ayrıca bu linki açtığınızda reklamsız olarak erişebileceğinizi unutmayın.

Mega


Uptobox ile indir

CloudRu ile indir

 
Cevapla
#2
Admin teşekkür ederiz eline koluna sağlık.
 
Cevapla
#3
(24-07-2018, Saat: 19:47)svsky0636 Adlı Kullanıcıdan Alıntı: Admin teşekkür ederiz eline koluna sağlık.

Değerli yorumunuz için biz teşekkür ederiz. İyi seyirler.
 
Cevapla
#4
teşekkürler
 
Cevapla
#5
Eyw reis
 
Cevapla
  


Konu ile Alakalı Benzer Konular
Konular Yazar Yorumlar Okunma Son Yorum
Filmin Yayınlanma Tarihi: 2018 Çakallarla Dans 5 (2018) Yerli Film BLURAY m1080P İndir BroserBros 10 362 1 saat önce
Son Yorum: bakalım
  Çat Kapı Aşk (2019) Yerli Film BLURAY m1080P İndir BroserBros 4 245 17-01-2020, Saat: 20:38
Son Yorum: yasin2003
Filmin Yayınlanma Tarihi: 2018 Babamın Ceketi (2018) Yerli Film BLURAY 1080P İndir BroserBros 3 119 12-01-2020, Saat: 01:31
Son Yorum: Murat94
Filmin Yayınlanma Tarihi: 2018 Şipşak Aile (Instant Family) Türkçe Dublaj BLURAY m1080P İndir BroserBros 7 371 11-01-2020, Saat: 15:08
Son Yorum: ahkna
Filmin Yayınlanma Tarihi: 2016 Keanu Türkçe Dublaj m1080P İndir BroserBros 1 737 07-01-2020, Saat: 20:37
Son Yorum: Polatemirhan

Hızlı Menü:


Browsing: 1 Ziyaretçi