Hoşgeldin, Ziyaretçi: Giriş Yap Üye Ol


stats
Adblock'u kapattıysanız tıklayın.
Hoşgeldiniz!
Filmbol'u tercih ettiğiniz için teşekkürler, ancak ablock kullanarak devam edemezsiniz.
Merak etmeyin. Heryerden ardı ardına çıkan reklamlar görmeyeceksiniz :)

Sadece site içi 1 reklam göreceksin ve bu site gezintini etkilemeyecek.
Konuyu Oyla:
  • Derecelendirme: 0/5 - 0 oy
  • 1
  • 2
  • 3
  • 4
  • 5
Taş Devri Firarda (Early Man) Türkçe Dublaj Brrip-Xvid İndir
#1
Filmin Yayınlanma Tarihi: 2018 

indirme türü


Bulut + Premium

vizyon tarihi


13 Nisan 2018

Boyutlar


1,06

diller


[TR]

altyazilar


Yok [Eklenebilir]

Video Format: Avi


Audio Video Interleave (.AVI)

Video Detay


MPEG-4,1592 Kbps, 1,01 GB

imdb puanı


6,1 / 10,0 / 10,000

süre


89 dakika

Ses Kodek: MP3


MPEG-1 Audio Layer III (MP3)

Ses Detay


184 Kbps, 2 Kanal, 81 Mb

rarsifresi


Filmbol.org

Editör Puanı


5,9

Genislik Yukseklik


720x392

sürüm


h263 | Brrip-Xvid



Film Detayları

Dünya değişmiş, Bronz Çağı’na geçilmiştir. Fakat sevimli dostları ile birlikte mutlu bir şekilde vadilerinde yaşayan Taş Devri kabilesinin bu durumdan haberi yoktur. Üstelik kral Lord Nooth vadilerini de ellerinden almıştır. Kabilesini kurtarmaya kararlı olan genç mağara adamı Dug bir futbol maçı düzenleyerek evini geri kazanmayı planlar. Krala meydan okuyan Dug ve dostları bu sayede takım olmanın ve dostluğun önemini anlar.

Taş Devri Firarda (Early Man) Filmi İmdb'den 10.000 kişi tarafından oylandı ve 6,1 puan aldı. Bu film için editör puanı 5,9 olarak belirlendi. İyi Seyirler!


Teknik Detaylar

Kod:
General
Complete name                            : Early.Man.2018.BRRip.XviD.TR.avi
Format                                   : AVI
Format/Info                              : Audio Video Interleave
File size                                : 1.07 GiB
Duration                                 : 1 h 28 min
Overall bit rate                         : 1 733 kb/s

Video
ID                                       : 0
Format                                   : MPEG-4 Visual
Format profile                           : Simple@L5
Format settings, BVOP                    : No
Format settings, QPel                    : No
Format settings, GMC                     : No warppoints
Format settings, Matrix                  : Default (H.263)
Codec ID                                 : XVID
Codec ID/Hint                            : XviD
Duration                                 : 1 h 28 min
Bit rate                                 : 1 592 kb/s
Width                                    : 720 pixels
Height                                   : 392 pixels
Display aspect ratio                     : 1.85:1
Frame rate                               : 23.976 (24000/1001) FPS
Color space                              : YUV
Chroma subsampling                       : 4:2:0
Bit depth                                : 8 bits
Scan type                                : Progressive
Compression mode                         : Lossy
Bits/(Pixel*Frame)                       : 0.235
Stream size                              : 1 010 MiB (92%)
Writing library                          : Lavc57.107.100

Audio
ID                                       : 1
Format                                   : MPEG Audio
Format version                           : Version 1
Format profile                           : Layer 3
Format settings                          : Joint stereo / MS Stereo
Codec ID                                 : 55
Codec ID/Hint                            : MP3
Duration                                 : 1 h 28 min
Bit rate mode                            : Constant
Bit rate                                 : 128 kb/s
Channel(s)                               : 2 channels
Sampling rate                            : 48.0 kHz
Frame rate                               : 41.667 FPS (1152 SPF)
Compression mode                         : Lossy
Stream size                              : 81.2 MiB (7%)
Alignment                                : Aligned on interleaves
Interleave, duration                     : 24  ms (0.58 video frame)




Film Detayları


Tas Devri Firarda

Tas Devri Firarda

Tas Devri Firarda

Tas Devri Firarda

Tas Devri Firarda



Film Fragmanı


Film Detayları

Brrip İndir


Turbobit İle İndir

Mega ile indir

Uptobox ile indir

Cloud Ru ile indir

 
Cevapla
  


Konu ile Alakalı Benzer Konular
Konular Yazar Yorumlar Okunma Son Yorum
Filmin Yayınlanma Tarihi: 2018 Örümcek Adam: Örümcek Evreninde (Spider-Man) Türkçe Dublaj Brrip Xvid İndir BroserBros 4 150 14-09-2019, Saat: 22:55
Son Yorum: edizshady
Filmin Yayınlanma Tarihi: 2019 Ralph ve İnternet (Ralph Breaks the Internet) Türkçe Dublaj Brrip Xvid İndir BroserBros 1 65 11-09-2019, Saat: 01:47
Son Yorum: Droid Artworx
Filmin Yayınlanma Tarihi: 2019 Mucizeler Parkı (Wonder Park) Türkçe Dublaj Brrip Xvid İndir BroserBros 0 83 08-07-2019, Saat: 19:35
Son Yorum: BroserBros
Filmin Yayınlanma Tarihi: 2019 Karlar Kraliçesi 4: Sihirli Ayna (Snezhnaya koroleva) Türkçe Dublaj Brrip Xvid İndir BroserBros 0 111 08-07-2019, Saat: 16:11
Son Yorum: BroserBros
Filmin Yayınlanma Tarihi: 2017 Ayı Paddington 2 (Paddington 2) Türkçe Dublaj Brrip-Xvid İndir BroserBros 0 644 23-08-2018, Saat: 20:16
Son Yorum: BroserBros

Hızlı Menü:


Şu anda bu konuyu okuyanlar: 1 Ziyaretçi