Filmbol Forum Film İndir FHD - FULL HD v Tarzan (Tarzan) - 2013 - TR+ORG - FHD - x264
Moderatör Alımları Başladı! Başvuru yapmak için tıklayın.
Filmbol Premium'da %50'e varan indirim fırsatı!
Tarzan (Tarzan) - 2013 - TR+ORG - FHD - x264
BroserBros
Tarzan (Tarzan) - 2013 - TR+ORG - FHD - x264
0
131
  • Derecelendirme: 0/5 - 0 oy
  • 1
  • 2
  • 3
  • 4
  • 5
Konuyu Okuyanlar:1 Ziyaretçi
Şuan Offine!
Filmin Yayınlanma Tarihi: 2013 
Şuan Offine!
BroserBros Kurucu Admin
*******
Admin

Vizyon Tarihi


07 Kasım 2014

imdb puanı


4,8 / 12,000

süre


94 dakika

Editör Puanı


5,5 / 10

Video Format: Mkv


Matroska (.MKV)

Ses Kodek: AC3


Audio Coding 3 (AC3)

sürüm


x264|BluRay

Boyutlar


1,52 GB



 Tarzan



John Clayton'un anne ve babası bir ormanda helikopter kazası sonucu hayatını kaybetmişlerdir. John, bu kazadan sağ çıkmıştır ve koskocaman ormanda küçüçük bir çocuk olan John, yapayalnızdır. Neyse ki mucizevi bir şekilde bir maymun sürüsü tarafından bulunmuş ve yetiştirilmiştir. Elbette hayatının sonuna kadar bu ormanda kalamazdı. Yılların ardından bir kadın John'u bulur ve yeni ismiyle Tarzan bu kadına aşık olacaktır...

Tarzan (2013) (Tarzan) Filmi Imdb'den 12,000 kişi tarafından oylandı ve 4,8 puan aldı. Bu film için editör puanı 5,5 olarak belirlendi. İyi Seyirler!

Teknik Detaylar

Kod :
General
Unique ID                                : 64885160498431958604353285578753696514 (0x30D06D6723A67645D0FF243A1B91E302)
Complete name                            : /root/Desktop/Upload List v2/Tarzan.2013.FHD.BluRay.x264.TR.ENG.Filmbol.mkv
Format                                  : Matroska
Format version                          : Version 4 / Version 2
File size                                : 5.43 GiB
Duration                                : 1h 34mn
Overall bit rate                        : 8 255 Kbps
Movie name                              : Tarzan - 2013 | Filmbol.org
Encoded date                            : UTC 2020-06-04 10:50:57
Writing application                      : mkvmerge v8.8.0 ('Wind at my back') 64bit
Writing library                          : libebml v1.3.3 + libmatroska v1.4.4

Video
ID                                      : 1
Format                                  : AVC
Format/Info                              : Advanced Video Codec
Format profile                          : High@L4.1
Format settings, CABAC                  : Yes
Format settings, ReFrames                : 5 frames
Codec ID                                : V_MPEG4/ISO/AVC
Duration                                : 1h 34mn
Bit rate                                : 7 490 Kbps
Width                                    : 1 920 pixels
Height                                  : 804 pixels
Display aspect ratio                    : 2.40:1
Frame rate mode                          : Constant
Frame rate                              : 23.976 (24000/1001) fps
Color space                              : YUV
Chroma subsampling                      : 4:2:0
Bit depth                                : 8 bits
Scan type                                : Progressive
Bits/(Pixel*Frame)                      : 0.202
Stream size                              : 4.92 GiB (91%)
Title                                    : FHD - Filmbol.org
Writing library                          : x264 core 142 r2431 ac76440
Encoding settings                        : cabac=1 / ref=5 / deblock=1:-3:-3 / analyse=0x3:0x113 / me=umh / subme=11 / psy=1 / psy_rd=1.00:0.00 / mixed_ref=1 / me_range=32 / chroma_me=1 / trellis=2 / 8x8dct=1 / cqm=0 / deadzone=21,11 / fast_pskip=0 / chroma_qp_offset=-2 / threads=12 / lookahead_threads=1 / sliced_threads=0 / nr=0 / decimate=0 / interlaced=0 / bluray_compat=0 / constrained_intra=0 / bframes=6 / b_pyramid=2 / b_adapt=2 / b_bias=0 / direct=3 / weightb=1 / open_gop=0 / weightp=2 / keyint=240 / keyint_min=23 / scenecut=40 / intra_refresh=0 / rc=2pass / mbtree=0 / bitrate=7490 / ratetol=1.0 / qcomp=0.60 / qpmin=0 / qpmax=69 / qpstep=4 / cplxblur=20.0 / qblur=0.5 / ip_ratio=1.40 / pb_ratio=1.30 / aq=1:0.80
Language                                : English
Default                                  : Yes
Forced                                  : No

Audio #1
ID                                      : 2
Format                                  : MPEG Audio
Format version                          : Version 1
Format profile                          : Layer 3
Mode                                    : Joint stereo
Mode extension                          : MS Stereo
Codec ID                                : A_MPEG/L3
Codec ID/Hint                            : MP3
Duration                                : 1h 34mn
Bit rate mode                            : Constant
Bit rate                                : 128 Kbps
Channel(s)                              : 2 channels
Sampling rate                            : 48.0 KHz
Frame rate                              : 41.667 fps (1152 spf)
Compression mode                        : Lossy
Stream size                              : 86.2 MiB (2%)
Title                                    : Türkçe - Filmbol.org
Writing library                          : LAME3.99r
Encoding settings                        : -m j -V 4 -q 2 -lowpass 17 -b 128
Language                                : Turkish
Default                                  : Yes
Forced                                  : No

Audio #2
ID                                      : 3
Format                                  : AC-3
Format/Info                              : Audio Coding 3
Mode extension                          : CM (complete main)
Format settings, Endianness              : Big
Codec ID                                : A_AC3
Duration                                : 1h 34mn
Bit rate mode                            : Constant
Bit rate                                : 640 Kbps
Channel(s)                              : 6 channels
Channel positions                        : Front: L C R, Side: L R, LFE
Sampling rate                            : 48.0 KHz
Frame rate                              : 31.250 fps (1536 spf)
Compression mode                        : Lossy
Stream size                              : 431 MiB (8%)
Title                                    : İngilizce - Filmbol.org
Language                                : English
Default                                  : No
Forced                                  : No

Text #1
ID                                      : 4
Format                                  : UTF-8
Codec ID                                : S_TEXT/UTF8
Codec ID/Info                            : UTF-8 Plain Text
Duration                                : 1h 27mn
Bit rate                                : 23 bps
Count of elements                        : 491
Stream size                              : 14.7 KiB (0%)
Title                                    : Türkçe Altyazı
Default                                  : Yes
Forced                                  : No

Text #2
ID                                      : 5
Format                                  : UTF-8
Codec ID                                : S_TEXT/UTF8
Codec ID/Info                            : UTF-8 Plain Text
Duration                                : 1h 27mn
Bit rate                                : 26 bps
Count of elements                        : 517
Stream size                              : 17.0 KiB (0%)
Language                                : English
Default                                  : No
Forced                                  : No

Film Detayları


 Tarzan

 Tarzan

 Tarzan


Film Fragmanı


Film Detayları

Uptobox ile indir

1Fichier ile indir

1Fichier'den İndiremiyor musun? Tıklayın!


Mega ile indir

Bunun için üzgünüz ancak, bu linke sadece premium üyeler erişebilir.

Filmbol Cloud



Konu ile Alakalı Benzer Konular
Konular Yazar Yorumlar Okunma Son Yorum
Filmin Yayınlanma Tarihi: 2020
The Hunt (Av) - 2020 - TR+ORG - FHD - x264 BroserBros 0 261 18-09-2020, Saat: 19:29
Son Yorum: BroserBros
Filmin Yayınlanma Tarihi: 2018
Gözbebeğim (Pupille) - 2018 - TR+ORG - FHD - x264 BroserBros 0 266 18-09-2020, Saat: 13:03
Son Yorum: BroserBros
Filmin Yayınlanma Tarihi: 2019
Umut Vadisi (Hope Gap) - 2019 - TR+ORG - FHD - x264 BroserBros 0 259 18-09-2020, Saat: 12:52
Son Yorum: BroserBros
Filmin Yayınlanma Tarihi: 2019
Cep Herkülü: Naim Süleymanoğlu (Cep Herkülü: Naim Süleymanoğlu) - 2019 - TR+ORG - FHD - x264 BroserBros 0 344 15-09-2020, Saat: 21:51
Son Yorum: BroserBros
Filmin Yayınlanma Tarihi: 2020
Berlin, Berlin (Berlin, Berlin) - 2020 - TR+ORG - FHD - x264 BroserBros 0 93 15-09-2020, Saat: 18:18
Son Yorum: BroserBros

Hızlı Menü: