Filmbol Forum Film İndir 1080P v Takip Edenler (Them That Follow) - 2019 - TR+ORG - 1080P
Moderatör Alımları Başladı! Başvuru yapmak için tıklayın.
Filmbol Premium'da %50'e varan indirim fırsatı!
Takip Edenler (Them That Follow) - 2019 - TR+ORG - 1080P
BroserBros
Takip Edenler (Them That Follow) - 2019 - TR+ORG - 1080P
0
164
  • Derecelendirme: 0/5 - 0 oy
  • 1
  • 2
  • 3
  • 4
  • 5
Konuyu Okuyanlar:1 Ziyaretçi
Şuan Offine!
Filmin Yayınlanma Tarihi: 2019 
Şuan Offine!
BroserBros Kurucu Admin
*******
Admin

Vizyon Tarihi


02 Ağustos 2019

imdb puanı


5,3 / 3,000

süre


98 dakika

Editör Puanı


5,5 / 10

Video Format: Mkv


Matroska (.MKV)

Ses Kodek: AC3


Audio Coding 3 (AC3)

sürüm


x264 | 1080P | BluRay

Boyutlar


1,70 GB



 Takip Edenler



Them That Follow, Appalachia’da yaşamını sürdüren bir topluluğa odaklanıyor. Topluluğun bağlı olduğu tarikat, yılanları kullanarak kendilerini Tanrı’ya kanıtlamaya çalışır. Topluluğun lideri ise Papaz Lemuel Childs’dır. Lemuel’in kendisine sadık kızı Mara, bu sırada evlilik hazırlığı içerisindedir. Tam da bu sırada Lemuel, kızını yılanlarla ölümcül bir eğitime sokar ve bu korkunç sırların ortaya çıkmasına neden olur.

Takip Edenler (2019) (Them That Follow) Filmi Imdb'den 3,000 kişi tarafından oylandı ve 5,3 puan aldı. Bu film için editör puanı 5,5 olarak belirlendi. İyi Seyirler!

Teknik Detaylar

Kod :
General
Unique ID                                : 79225481023513257444285163449779673344 (0x3B9A45CAD415F75BC247BA65181AD900)
Complete name                            : /root/Desktop/3/Takip.Edenler.2019.1080p.WEB-DL.x264.TR.ENG.Filmbol.mkv
Format                                  : Matroska
Format version                          : Version 4 / Version 2
File size                                : 1.70 GiB
Duration                                : 1h 38mn
Overall bit rate                        : 2 484 Kbps
Movie name                              : Takip Edenler - Them That Follow - 2019 | Filmbol.org
Encoded date                            : UTC 2020-06-12 12:06:17
Writing application                      : mkvmerge v8.8.0 ('Wind at my back') 64bit
Writing library                          : libebml v1.3.3 + libmatroska v1.4.4

Video
ID                                      : 1
Format                                  : AVC
Format/Info                              : Advanced Video Codec
Format profile                          : High@L4.1
Format settings, CABAC                  : Yes
Format settings, ReFrames                : 4 frames
Codec ID                                : V_MPEG4/ISO/AVC
Duration                                : 1h 37mn
Bit rate                                : 2 100 Kbps
Width                                    : 1 920 pixels
Height                                  : 816 pixels
Display aspect ratio                    : 2.35:1
Frame rate mode                          : Constant
Frame rate                              : 23.976 (24000/1001) fps
Color space                              : YUV
Chroma subsampling                      : 4:2:0
Bit depth                                : 8 bits
Scan type                                : Progressive
Bits/(Pixel*Frame)                      : 0.056
Stream size                              : 1.44 GiB (84%)
Title                                    : Filmbol.org
Writing library                          : x264 core 158
Encoding settings                        : cabac=1 / ref=4 / deblock=1:-1:-1 / analyse=0x3:0x133 / me=umh / subme=9 / psy=1 / psy_rd=1.00:0.15 / mixed_ref=1 / me_range=24 / chroma_me=1 / trellis=2 / 8x8dct=1 / cqm=0 / deadzone=21,11 / fast_pskip=0 / chroma_qp_offset=-3 / threads=12 / lookahead_threads=1 / sliced_threads=0 / nr=0 / decimate=1 / interlaced=0 / bluray_compat=0 / constrained_intra=0 / bframes=3 / b_pyramid=2 / b_adapt=2 / b_bias=0 / direct=3 / weightb=1 / open_gop=0 / weightp=2 / keyint=250 / keyint_min=23 / scenecut=40 / intra_refresh=0 / rc_lookahead=60 / rc=2pass / mbtree=1 / bitrate=2100 / ratetol=1.0 / qcomp=0.60 / qpmin=0 / qpmax=69 / qpstep=4 / cplxblur=20.0 / qblur=0.5 / vbv_maxrate=31250 / vbv_bufsize=31250 / nal_hrd=none / filler=0 / ip_ratio=1.40 / aq=1:1.00
Default                                  : Yes
Forced                                  : No

Audio #1
ID                                      : 2
Format                                  : AC-3
Format/Info                              : Audio Coding 3
Mode extension                          : CM (complete main)
Format settings, Endianness              : Big
Codec ID                                : A_AC3
Duration                                : 1h 37mn
Bit rate mode                            : Constant
Bit rate                                : 192 Kbps
Channel(s)                              : 2 channels
Channel positions                        : Front: L R
Sampling rate                            : 48.0 KHz
Frame rate                              : 31.250 fps (1536 spf)
Compression mode                        : Lossy
Stream size                              : 135 MiB (8%)
Title                                    : Filmbol.org
Language                                : Turkish
Default                                  : Yes
Forced                                  : No

Audio #2
ID                                      : 3
Format                                  : AC-3
Format/Info                              : Audio Coding 3
Mode extension                          : CM (complete main)
Format settings, Endianness              : Big
Codec ID                                : A_AC3
Duration                                : 1h 37mn
Bit rate mode                            : Constant
Bit rate                                : 192 Kbps
Channel(s)                              : 2 channels
Channel positions                        : Front: L R
Sampling rate                            : 48.0 KHz
Frame rate                              : 31.250 fps (1536 spf)
Compression mode                        : Lossy
Stream size                              : 135 MiB (8%)
Title                                    : Filmbol.org
Language                                : English
Default                                  : No
Forced                                  : No

Text
ID                                      : 4
Format                                  : UTF-8
Codec ID                                : S_TEXT/UTF8
Codec ID/Info                            : UTF-8 Plain Text
Duration                                : 1h 36mn
Bit rate                                : 28 bps
Count of elements                        : 764
Stream size                              : 20.3 KiB (0%)
Title                                    : Filmbol.org
Language                                : Turkish
Default                                  : No
Forced                                  : No

Film Detayları


 Takip Edenler

 Takip Edenler

 Takip Edenler


Film Fragmanı


Film Detayları

Uptobox ile indir

1Fichier ile indir

1Fichier'den İndiremiyor musun? Tıklayın!


Mega ile indir

Bunun için üzgünüz ancak, bu linke sadece premium üyeler erişebilir.

Filmbol Cloud



Konu ile Alakalı Benzer Konular
Konular Yazar Yorumlar Okunma Son Yorum
Filmin Yayınlanma Tarihi: 2018
Mogli: Orman Çocuğu (Mowgli) Türkçe Dublaj BLURAY 1080P İndir BroserBros 10 822 19-09-2020, Saat: 13:11
Son Yorum: Rocklion17
Filmin Yayınlanma Tarihi: 2020
The Hunt (Av) - 2020 - TR+ORG - 1080P BroserBros 0 194 18-09-2020, Saat: 19:28
Son Yorum: BroserBros
Filmin Yayınlanma Tarihi: 2018
Gözbebeğim (Pupille) - 2018 - TR+ORG - 1080P BroserBros 0 198 18-09-2020, Saat: 13:02
Son Yorum: BroserBros
Filmin Yayınlanma Tarihi: 2019
Umut Vadisi (Hope Gap) - 2019 - TR+ORG - 1080P BroserBros 0 197 18-09-2020, Saat: 12:52
Son Yorum: BroserBros
Filmin Yayınlanma Tarihi: 2020
Görünmez Adam (The Invisible Man) - 2020 - TR+ORG - 1080P BroserBros 1 139 16-09-2020, Saat: 20:10
Son Yorum: berkangungor

Hızlı Menü: