Hoşgeldin, Ziyaretçi: Giriş Yap Üye Ol


Konuyu Oyla:
  • Derecelendirme: 0/5 - 0 oy
  • 1
  • 2
  • 3
  • 4
  • 5
Title: Synchronicity Türkçe Dublaj Brrip-Xvid İndir
Gösterim Stili
#1
Filmin Yayınlanma Tarihi: 2015 

indirme türü


Bulut + Premium

vizyon tarihi


22 Ocak 2016

Boyutlar


1,15GB

diller


[TR]

altyazilar


Yok [Eklenebilir]

Video Format: Avi


Audio Video Interleave (.AVI)

Video Detay


MPEG-4, 1512 Kbps, 1,06 GB

imdb puanı


5,5 / 10,0 / 10,000

süre


101 dakika

Ses Kodek: MP3


MPEG-1 Audio Layer III (MP3)

Ses Detay


128 Kbps, 2 Kanal, 92 Mb

rarsifresi


filmbol.org

Editör Puanı


6,0

Genislik Yukseklik


720x304

sürüm


h263 | Brrip-Xvid


Film Detayları

Fizikçi Jim Beale uzay-zamanı bükebilen bir icat yapar ve gelecekten oldukça nadir bir Dahlia (Yıldız) çiçeğine ulaşır. Makinesinin gerçekten çalıştığını ispatlayabilmek için kendi zamanında tam olarak aynı çiçeği bulmalıdır. Jim sonunda çiçeğin gizemli bir kadının ellerinde olduğunu keşfeder ancak bu baştan çıkarıcı kadın Jim’in sırlarını da açığa çıkartacaktır.


Teknik Detaylar
Kod:
General
Format                                   : AVI
Format/Info                              : Audio Video Interleave
File size                                : 1.16 GiB
Duration                                 : 1h 40mn
Overall bit rate                         : 1 649 Kbps

Video
ID                                       : 0
Format                                   : MPEG-4 Visual
Format profile                           : Advanced Simple@L5
Format settings, BVOP                    : 2
Format settings, QPel                    : No
Format settings, GMC                     : No warppoints
Format settings, Matrix                  : Default (H.263)
Muxing mode                              : Packed bitstream
Codec ID                                 : XVID
Codec ID/Hint                            : XviD
Duration                                 : 1h 40mn
Bit rate                                 : 1 512 Kbps
Width                                    : 720 pixels
Height                                   : 304 pixels
Display aspect ratio                     : 2.35:1
Frame rate                               : 23.976 fps
Color space                              : YUV
Chroma subsampling                       : 4:2:0
Bit depth                                : 8 bits
Scan type                                : Progressive
Compression mode                         : Lossy
Bits/(Pixel*Frame)                       : 0.288
Stream size                              : 1.06 GiB (92%)
Writing library                          : XviD 66

Audio
ID                                       : 1
Format                                   : MPEG Audio
Format version                           : Version 1
Format profile                           : Layer 3
Mode                                     : Joint stereo
Mode extension                           : MS Stereo
Codec ID                                 : 55
Codec ID/Hint                            : MP3
Duration                                 : 1h 40mn
Source duration                          : 1h 40mn
Bit rate mode                            : Constant
Bit rate                                 : 128 Kbps
Channel(s)                               : 2 channels
Sampling rate                            : 48.0 KHz
Compression mode                         : Lossy
Stream size                              : 92.0 MiB (8%)
Alignment                                : Aligned on interleaves
Interleave, duration                     : 42 ms (1.00 video frame)



Film Detayları


Synchronicity

Synchronicity

Synchronicity

Synchronicity

Synchronicity


Film Fragmanı


Film Detayları

Brrip İndir


Mega linki şuan da gizli. Kullanıma açmak için konuya yorum yapın ve ardından sayfayı yenileyin. Ayrıca bu linki açtığınızda reklamsız olarak erişebileceğinizi unutmayın.

Mega


Uptobox ile indir

 
Cevapla
  


Konu ile Alakalı Benzer Konular
Konular Yazar Yorumlar Okunma Son Yorum
Filmin Yayınlanma Tarihi: 2019 Öksüz Brooklyn (Motherless Brooklyn) Türkçe Dublaj BRRip XviD indir BroserBros 0 55 22-02-2020, Saat: 22:28
Son Yorum: BroserBros
Filmin Yayınlanma Tarihi: 2016 Uyumsuz Serisi: Yandaş Bölüm 1 (Allegiant) Türkçe Dublaj Brrip-Xvid İndir BroserBros 3 1,843 05-02-2020, Saat: 16:32
Son Yorum: Ap0calypse
Filmin Yayınlanma Tarihi: 2018 Kaçış Planı 2: Hades (Escape Plan 2) Türkçe Dublaj Brrip Xvid İndir BroserBros 6 459 26-01-2020, Saat: 21:23
Son Yorum: alynakrkya
Filmin Yayınlanma Tarihi: 2019 Annabelle 3 (Annabelle Comes Home) Türkçe Dublaj Brrip Xvid İndir BroserBros 1 409 18-01-2020, Saat: 00:51
Son Yorum: madbomonti
Filmin Yayınlanma Tarihi: 2018 Süper Polisler 2 (Super Troopers 2) Türkçe Dublaj BRRip XviD İndir BroserBros 0 101 12-01-2020, Saat: 18:39
Son Yorum: BroserBros

Hızlı Menü:


Browsing: 1 Ziyaretçi