Filmbol Forum Film İndir 720P v Sürprizli Gece (The Sleepover) - 2020 - TR+ORG - 720P
Filmbol'da moderatör olmak ister misiniz? Bizimle iletişime geçmek için tıklayın!
21.12.2020 tarihinden itibaren yayınlanacak olan filmlerde 4K ve FHD sürümleri sadece premium üyelere açık olarak paylaşılacaktır. Diğer (XviD, 720P, 1080P, 3D) sürümleri normal üyeler sorunsuzca kullanmaya devam edebilecektir.
Sürprizli Gece (The Sleepover) - 2020 - TR+ORG - 720P
BroserBros
Sürprizli Gece (The Sleepover) - 2020 - TR+ORG - 720P
0
101
  • Derecelendirme: 0/5 - 0 oy
  • 1
  • 2
  • 3
  • 4
  • 5
Konuyu Okuyanlar:1 Ziyaretçi
Şuan Online!
Filmin Yayınlanma Tarihi: 2020 
Şuan Online!
BroserBros Kurucu Admin
*******
Admin

Vizyon Tarihi


21 Ağustos 2020

imdb puanı


5,6 / 7,000

süre


100 dakika

Editör Puanı


5,0 / 10

Video Format: Mkv


Matroska (.MKV)

Ses Kodek: AC3


Audio Coding 3 (AC3)

sürüm


x264 | 720P | WEB-DL

Boyutlar


1,29 GB



 Sürprizli Gece



Annelerinin kötü bir geçmişe sahip olduğunu öğrenen kardeşler yeni bir şey daha öğrenir; anneleri güçlü kişiler tarafından bir hırsızlık yapmaya zorlanmaktadır ve annelerini kurtarabilecek tek kişinin yine kendileri olduğunu anlarlar...

Sürprizli Gece (2020) (The Sleepover) Filmi Imdb'den 7,000 kişi tarafından oylandı ve 5,6 puan aldı. Bu film için editör puanı 5,0 olarak belirlendi. İyi Seyirler!

Teknik Detaylar

Kod :
General
Unique ID                                : 233608223198731811580635918740107032438 (0xAFBF4EA6B6C763D93D88439D0087F776)
Complete name                            : /root/Desktop/6/The.Sleepover.2020.720p.NF.WEB-DL.x264.TR.ENG.Filmbol.mkv
Format                                  : Matroska
Format version                          : Version 4 / Version 2
File size                                : 1.29 GiB
Duration                                : 1h 43mn
Overall bit rate                        : 1 779 Kbps
Movie name                              : The Sleepover - 2020 | Filmbol.org
Encoded date                            : UTC 2020-11-20 11:14:14
Writing application                      : mkvmerge v8.8.0 ('Wind at my back') 64bit
Writing library                          : libebml v1.3.3 + libmatroska v1.4.4

Video
ID                                      : 1
Format                                  : AVC
Format/Info                              : Advanced Video Codec
Format profile                          : [email protected]
Format settings, CABAC                  : Yes
Format settings, ReFrames                : 2 frames
Codec ID                                : V_MPEG4/ISO/AVC
Duration                                : 1h 43mn
Bit rate                                : 1 200 Kbps
Width                                    : 1 280 pixels
Height                                  : 720 pixels
Display aspect ratio                    : 16:9
Frame rate mode                          : Constant
Frame rate                              : 24.000 fps
Color space                              : YUV
Chroma subsampling                      : 4:2:0
Bit depth                                : 8 bits
Scan type                                : Progressive
Bits/(Pixel*Frame)                      : 0.054
Stream size                              : 891 MiB (67%)
Title                                    : The Sleepover - 2020 | Filmbol.org
Default                                  : Yes
Forced                                  : No

Audio #1
ID                                      : 2
Format                                  : AC-3
Format/Info                              : Audio Coding 3
Mode extension                          : CM (complete main)
Format settings, Endianness              : Big
Codec ID                                : A_AC3
Duration                                : 1h 43mn
Bit rate mode                            : Constant
Bit rate                                : 384 Kbps
Channel(s)                              : 6 channels
Channel positions                        : Front: L C R, Side: L R, LFE
Sampling rate                            : 48.0 KHz
Frame rate                              : 31.250 fps (1536 spf)
Compression mode                        : Lossy
Stream size                              : 285 MiB (22%)
Title                                    : The Sleepover - 2020 | Filmbol.org
Language                                : Turkish
Default                                  : Yes
Forced                                  : No

Audio #2
ID                                      : 3
Format                                  : AC-3
Format/Info                              : Audio Coding 3
Mode extension                          : CM (complete main)
Format settings, Endianness              : Big
Codec ID                                : A_AC3
Duration                                : 1h 43mn
Bit rate mode                            : Constant
Bit rate                                : 192 Kbps
Channel(s)                              : 2 channels
Channel positions                        : Front: L R
Sampling rate                            : 48.0 KHz
Frame rate                              : 31.250 fps (1536 spf)
Compression mode                        : Lossy
Stream size                              : 143 MiB (11%)
Title                                    : The Sleepover - 2020 | Filmbol.org
Language                                : English
Default                                  : No
Forced                                  : No

Text #1
ID                                      : 4
Format                                  : UTF-8
Codec ID                                : S_TEXT/UTF8
Codec ID/Info                            : UTF-8 Plain Text
Duration                                : 1h 39mn
Bit rate                                : 1 bps
Count of elements                        : 29
Stream size                              : 1 010 Bytes (0%)
Title                                    : The Sleepover - 2020 | Filmbol.org
Language                                : Turkish
Default                                  : Yes
Forced                                  : No

Text #2
ID                                      : 5
Format                                  : UTF-8
Codec ID                                : S_TEXT/UTF8
Codec ID/Info                            : UTF-8 Plain Text
Duration                                : 1h 40mn
Bit rate                                : 65 bps
Count of elements                        : 1575
Stream size                              : 48.1 KiB (0%)
Title                                    : The Sleepover - 2020 | Filmbol.org
Language                                : Turkish
Default                                  : No
Forced                                  : No

Film Detayları


 Sürprizli Gece

 Sürprizli Gece

 Sürprizli Gece


Film Fragmanı


Film Detayları

Uptobox ile indir

1Fichier ile indir

1Fichier'den İndiremiyor musun? Tıklayın!


Mega linki şuan da gizli. Kullanıma açmak için konuya yorum yapın ve ardından sayfayı yenileyin.

Mega


Bunun için üzgünüz ancak, bu linke sadece premium üyeler erişebilir.

Filmbol Cloud



Konu ile Alakalı Benzer Konular
Konular Yazar Yorumlar Okunma Son Yorum
Filmin Yayınlanma Tarihi: 2014
Yıldızlararası (Interstellar) Türkçe Dublaj 720P İndir BroserBros 20 8,206 , Saat: 23:05
Son Yorum: Furkangeri786
Filmin Yayınlanma Tarihi: 2019
Resmi Sırlar (Official Secrets) - 2019 - TR+ORG - 720P BroserBros 2 217 , Saat: 22:37
Son Yorum: disc55
Filmin Yayınlanma Tarihi: 2019
Hemen Döneriz (Yerli) - 2019 - TR+ORG - 720P BroserBros 0 29 , Saat: 20:59
Son Yorum: BroserBros
Filmin Yayınlanma Tarihi: 2020
40'ından Sonra (The Forty-Year-Old Version) - 2020 - TR+ORG - 720P BroserBros 0 29 , Saat: 20:31
Son Yorum: BroserBros
Filmin Yayınlanma Tarihi: 2014
Hayat Kitabı (The Book of Life) - 2014 - TR+ORG - 720P BroserBros 2 170 24-01-2021, Saat: 20:15
Son Yorum: okidokii

Hızlı Menü: