Filmbol Forum Film İndir BRRip XviD v Sürprizli Gece (The Sleepover) - 2020 - TR - BRRip XviD
Filmbol'da moderatör olmak ister misiniz? Bizimle iletişime geçmek için tıklayın!
21.12.2020 tarihinden itibaren yayınlanacak olan filmlerde 4K ve FHD sürümleri sadece premium üyelere açık olarak paylaşılacaktır. Diğer (XviD, 720P, 1080P, 3D) sürümleri normal üyeler sorunsuzca kullanmaya devam edebilecektir.
Sürprizli Gece (The Sleepover) - 2020 - TR - BRRip XviD
BroserBros
Sürprizli Gece (The Sleepover) - 2020 - TR - BRRip XviD
0
81
  • Derecelendirme: 0/5 - 0 oy
  • 1
  • 2
  • 3
  • 4
  • 5
Konuyu Okuyanlar:1 Ziyaretçi
Şuan Online!
Filmin Yayınlanma Tarihi: 2020 
Şuan Online!
BroserBros Kurucu Admin
*******
Admin

Vizyon Tarihi


21 Ağustos 2020

imdb puanı


5,6 / 7,000

süre


100 dakika

Editör Puanı


5,0 / 10

Video Format: Avi


Audio Video Interleave (.AVI)

Ses Kodek: MP3


MPEG-1 Audio Layer III (MP3)

sürüm


h263 | HDRip XviD

Boyutlar


1,23 GB



 Sürprizli Gece



Annelerinin kötü bir geçmişe sahip olduğunu öğrenen kardeşler yeni bir şey daha öğrenir; anneleri güçlü kişiler tarafından bir hırsızlık yapmaya zorlanmaktadır ve annelerini kurtarabilecek tek kişinin yine kendileri olduğunu anlarlar...

Sürprizli Gece (2020) (The Sleepover) Filmi Imdb'den 7,000 kişi tarafından oylandı ve 5,6 puan aldı. Bu film için editör puanı 5,0 olarak belirlendi. İyi Seyirler!

Teknik Detaylar

Kod :
General
Complete name                            : /root/Desktop/6/The.Sleepover.2020.HDRip.XViD.TR.Filmbol.avi
Format                                  : AVI
Format/Info                              : Audio Video Interleave
File size                                : 1.23 GiB
Duration                                : 1h 43mn
Overall bit rate                        : 1 696 Kbps

Video
ID                                      : 0
Format                                  : MPEG-4 Visual
Format profile                          : [email protected]
Format settings, BVOP                    : No
Format settings, QPel                    : No
Format settings, GMC                    : No warppoints
Format settings, Matrix                  : Default (H.263)
Codec ID                                : XVID
Codec ID/Hint                            : XviD
Duration                                : 1h 43mn
Bit rate                                : 1 554 Kbps
Width                                    : 720 pixels
Height                                  : 360 pixels
Display aspect ratio                    : 2.000
Frame rate                              : 24.000 fps
Color space                              : YUV
Chroma subsampling                      : 4:2:0
Bit depth                                : 8 bits
Scan type                                : Progressive
Compression mode                        : Lossy
Bits/(Pixel*Frame)                      : 0.250
Stream size                              : 1.13 GiB (92%)
Writing library                          : Lavc58.35.100

Audio
ID                                      : 1
Format                                  : MPEG Audio
Format version                          : Version 1
Format profile                          : Layer 3
Mode                                    : Joint stereo
Mode extension                          : MS Stereo
Codec ID                                : 55
Codec ID/Hint                            : MP3
Duration                                : 1h 43mn
Bit rate mode                            : Constant
Bit rate                                : 128 Kbps
Channel(s)                              : 2 channels
Sampling rate                            : 48.0 KHz
Compression mode                        : Lossy
Stream size                              : 95.1 MiB (8%)
Alignment                                : Aligned on interleaves
Interleave, duration                    : 24 ms (0.58 video frame)

Film Detayları


 Sürprizli Gece

 Sürprizli Gece

 Sürprizli Gece


Film Fragmanı


Film Detayları


Uptobox ile indir

1Fichier ile indir

1Fichier'den İndiremiyor musun? Tıklayın!


Mega linki şuan da gizli. Kullanıma açmak için konuya yorum yapın ve ardından sayfayı yenileyin.

Mega


Bunun için üzgünüz ancak, bu linke sadece premium üyeler erişebilir.

Filmbol Cloud



Konu ile Alakalı Benzer Konular
Konular Yazar Yorumlar Okunma Son Yorum
Filmin Yayınlanma Tarihi: 2019
Ölümcül Sular (Crawl) Türkçe Dublaj Brrip Xvid İndir BroserBros 5 565 4 saat önce
Son Yorum: Furkan61
Filmin Yayınlanma Tarihi: 2002
Örümcek-Adam (Spider-Man) Türkçe Dublaj BRRip XviD İndir BroserBros 1 439 4 saat önce
Son Yorum: Furkan61
Filmin Yayınlanma Tarihi: 2019
Terminatör: Kara Kader (Terminator: Dark Fate) türkçe Dublaj BRRip XviD indir BroserBros 6 478 4 saat önce
Son Yorum: Furkan61
Filmin Yayınlanma Tarihi: 2019
Hemen Döneriz (Yerli) - 2019 - TR - BRRip XviD BroserBros 0 31 , Saat: 20:59
Son Yorum: BroserBros
Filmin Yayınlanma Tarihi: 2020
40'ından Sonra (The Forty-Year-Old Version) - 2020 - TR - BRRip XviD BroserBros 0 32 , Saat: 20:31
Son Yorum: BroserBros

Hızlı Menü: