Filmbol Forum Film İndir BRRip XviD v Süper Polisler 2 (Super Troopers 2) Türkçe Dublaj BRRip XviD İndir
Filmbol'da moderatör olmak ister misiniz? Bizimle iletişime geçmek için tıklayın!
Süper Polisler 2 (Super Troopers 2) Türkçe Dublaj BRRip XviD İndir
BroserBros
Süper Polisler 2 (Super Troopers 2) Türkçe Dublaj BRRip XviD İndir
0
234
  • Derecelendirme: 0/5 - 0 oy
  • 1
  • 2
  • 3
  • 4
  • 5
Konuyu Okuyanlar:1 Ziyaretçi
Şuan Online!
Filmin Yayınlanma Tarihi: 2018 
Şuan Online!
BroserBros Kurucu Admin
*******
Admin

Vizyon Tarihi


20 Nisan 2018

imdb puanı


6,1 / 21,000

süre


99 dakika

Editör Puanı


6,0

Video Format: Avi


Audio Video Interleave (.AVI)

Ses Kodek: MP3


MPEG-1 Audio Layer III (MP3)

sürüm


h263 | BRRip Xvid

Boyutlar


1,21



Süper Polisler 2



Film Detayları

İlk Süper Polisler filminden birkaç yıl sonra geçen hikayede, polis memurları, Fred Savage'ı ölümüne yol açan bir yolculuğa çıkardıktan sonra Spurbury Polis Departmanından kovulmuşlardır. Mac, bir gün eski patronu Kaptan O'Hagen'dan, ekibi toplamak ve Kanada'da bir balık avına çıkmak için bir telefon alır. Ekip, Kanada'ya vardığında O'Hagen'ın Vermont Valisi Jessman'la bir toplantı yapma niyetinde olduğunu anlar. Jessman'ın söylediğine göre yakın zamanda yapılan bir arazi araştırması sırasında, Kanada’daki bir arazinin aslında ABD’nin toprağı olduğu ortaya çıkar ve valinin bu bölgeyi Kanada Kraliyet Polisi'nden devralmak için bir polis departmanı kurması gerektiği söylenir. Vali bu eski polis grubuna bu görevi teklif eder ve eğer başarılı olurlarsa yine eskisi gibi gerçek polisler olacaklarına söz verir. Ama böyle bir ekibin başarılı olması resmen bir mucize gerektirir.

Süper Polisler 2 (Super Troopers 2) Filmi Imdb'den 21,000 kişi tarafından oylandı ve 6,1 puan aldı. Bu film için editör puanı 6,0 olarak belirlendi. İyi Seyirler!


Teknik Detaylar


Kod :
General
Complete name                            : /root/Desktop/3/Süper.Polisler.2.2018.BRRip.XviD.TR.Filmbol.avi
Format                                   : AVI
Format/Info                              : Audio Video Interleave
File size                                : 1.21 GiB
Duration                                 : 1h 39mn
Overall bit rate                         : 1 741 Kbps

Video
ID                                       : 0
Format                                   : MPEG-4 Visual
Format profile                           : Simple@L5
Format settings, BVOP                    : No
Format settings, QPel                    : No
Format settings, GMC                     : No warppoints
Format settings, Matrix                  : Default (H.263)
Codec ID                                 : XVID
Codec ID/Hint                            : XviD
Duration                                 : 1h 39mn
Bit rate                                 : 1 600 Kbps
Width                                    : 720 pixels
Height                                   : 388 pixels
Display aspect ratio                     : 1.85:1
Frame rate                               : 23.976 fps
Color space                              : YUV
Chroma subsampling                       : 4:2:0
Bit depth                                : 8 bits
Scan type                                : Progressive
Compression mode                         : Lossy
Bits/(Pixel*Frame)                       : 0.239
Stream size                              : 1.11 GiB (92%)
Writing library                          : Lavc57.107.100

Audio
ID                                       : 1
Format                                   : MPEG Audio
Format version                           : Version 1
Format profile                           : Layer 3
Mode                                     : Joint stereo
Mode extension                           : MS Stereo
Codec ID                                 : 55
Codec ID/Hint                            : MP3
Duration                                 : 1h 39mn
Bit rate mode                            : Constant
Bit rate                                 : 128 Kbps
Channel(s)                               : 2 channels
Sampling rate                            : 48.0 KHz
Compression mode                         : Lossy
Stream size                              : 91.1 MiB (7%)
Alignment                                : Aligned on interleaves
Interleave, duration                     : 24 ms (0.58 video frame)

Film Detayları


Süper Polisler 2

Süper Polisler 2

Süper Polisler 2


Film Fragmanı


Film Detayları

Brrip İndir



Uptobox ile indir

1Fichier ile indir

1Fichier'den İndiremiyor musun? Tıklayın!


Mega ile indir

MediaFire ile indir



Konu ile Alakalı Benzer Konular
Konular Yazar Yorumlar Okunma Son Yorum
Filmin Yayınlanma Tarihi: 2020
Deathstroke Şövalyeler ve Ejderhalar (Deathstroke Knights & Dragons: The Movie) - 2020 - TR - BRRip XviD BroserBros 0 45 23-11-2020, Saat: 18:30
Son Yorum: BroserBros
Filmin Yayınlanma Tarihi: 2019
15 Dakika Savaş (L'intervention) - 2019 - TR - BRRip XviD BroserBros 0 45 23-11-2020, Saat: 17:42
Son Yorum: BroserBros
Filmin Yayınlanma Tarihi: 2020
Sürprizli Gece (The Sleepover) - 2020 - TR - BRRip XviD BroserBros 0 46 23-11-2020, Saat: 16:18
Son Yorum: BroserBros
Filmin Yayınlanma Tarihi: 2020
Feride (Feride) - 2020 - TR - BRRip XviD BroserBros 0 39 22-11-2020, Saat: 17:58
Son Yorum: BroserBros
Filmin Yayınlanma Tarihi: 2019
Gel Babacığına (Come to Daddy) - 2019 - TR - BRRip XviD BroserBros 0 35 22-11-2020, Saat: 17:43
Son Yorum: BroserBros

Hızlı Menü: