Filmbol Forum Film İndir 1080P v Süper Polisler 2 (Super Troopers 2) Türkçe Dublaj BLURAY 1080P İndir
Filmbol'da moderatör olmak ister misiniz? Bizimle iletişime geçmek için tıklayın!
Süper Polisler 2 (Super Troopers 2) Türkçe Dublaj BLURAY 1080P İndir
BroserBros
Süper Polisler 2 (Super Troopers 2) Türkçe Dublaj BLURAY 1080P İndir
0
186
  • Derecelendirme: 0/5 - 0 oy
  • 1
  • 2
  • 3
  • 4
  • 5
Konuyu Okuyanlar:1 Ziyaretçi
Şuan Online!
Filmin Yayınlanma Tarihi: 2018 
Şuan Online!
BroserBros Kurucu Admin
*******
Admin

Vizyon Tarihi


20 Nisan 2018

imdb puanı


6,1 / 21,000

süre


99 dakika

Editör Puanı


6,0

Video Format: Mkv


Matroska (.MKV)

Ses Kodek: AC3


Audio Coding 3 (AC3)

sürüm


x264 | 1080P | BLURAY

Boyutlar


1,76



Süper Polisler 2



Film Detayları

İlk Süper Polisler filminden birkaç yıl sonra geçen hikayede, polis memurları, Fred Savage'ı ölümüne yol açan bir yolculuğa çıkardıktan sonra Spurbury Polis Departmanından kovulmuşlardır. Mac, bir gün eski patronu Kaptan O'Hagen'dan, ekibi toplamak ve Kanada'da bir balık avına çıkmak için bir telefon alır. Ekip, Kanada'ya vardığında O'Hagen'ın Vermont Valisi Jessman'la bir toplantı yapma niyetinde olduğunu anlar. Jessman'ın söylediğine göre yakın zamanda yapılan bir arazi araştırması sırasında, Kanada’daki bir arazinin aslında ABD’nin toprağı olduğu ortaya çıkar ve valinin bu bölgeyi Kanada Kraliyet Polisi'nden devralmak için bir polis departmanı kurması gerektiği söylenir. Vali bu eski polis grubuna bu görevi teklif eder ve eğer başarılı olurlarsa yine eskisi gibi gerçek polisler olacaklarına söz verir. Ama böyle bir ekibin başarılı olması resmen bir mucize gerektirir.

Süper Polisler 2 (Super Troopers 2) Filmi Imdb'den 21,000 kişi tarafından oylandı ve 6,1 puan aldı. Bu film için editör puanı 6,0 olarak belirlendi. İyi Seyirler!


Teknik Detaylar


Kod :
General
Unique ID                                : 207114772189803563987723827420544115867 (0x9BD0DAAAC9E67E3CC56E37277BA4249B)
Complete name                            : /root/Desktop/3/Süper.Polisler.2.2018.1080p.BluRay.x264.Filmbol.mkv
Format                                   : Matroska
Format version                           : Version 4 / Version 2
File size                                : 1.76 GiB
Duration                                 : 1h 39mn
Overall bit rate                         : 2 535 Kbps
Movie name                               : Süper Polisler 2 (2018) - Filmbol.org
Encoded date                             : UTC 2020-01-08 23:48:37
Writing application                      : mkvmerge v35.0.0 ('All The Love In The World') 64-bit
Writing library                          : libebml v1.3.9 + libmatroska v1.5.2

Video
ID                                       : 1
Format                                   : AVC
Format/Info                              : Advanced Video Codec
Format profile                           : High@L4.1
Format settings, CABAC                   : Yes
Format settings, ReFrames                : 4 frames
Codec ID                                 : V_MPEG4/ISO/AVC
Duration                                 : 1h 39mn
Bit rate                                 : 2 150 Kbps
Width                                    : 1 920 pixels
Height                                   : 1 024 pixels
Display aspect ratio                     : 1.85:1
Frame rate mode                          : Constant
Frame rate                               : 23.976 (24000/1001) fps
Color space                              : YUV
Chroma subsampling                       : 4:2:0
Bit depth                                : 8 bits
Scan type                                : Progressive
Bits/(Pixel*Frame)                       : 0.046
Stream size                              : 1.49 GiB (85%)
Title                                    : 1080P - Filmbol.org
Writing library                          : x264 core 152
Encoding settings                        : cabac=1 / ref=4 / deblock=1:-1:-1 / analyse=0x3:0x133 / me=umh / subme=9 / psy=1 / psy_rd=1.00:0.15 / mixed_ref=1 / me_range=24 / chroma_me=1 / trellis=2 / 8x8dct=1 / cqm=0 / deadzone=21,11 / fast_pskip=0 / chroma_qp_offset=-3 / threads=12 / lookahead_threads=1 / sliced_threads=0 / nr=0 / decimate=1 / interlaced=0 / bluray_compat=0 / constrained_intra=0 / bframes=3 / b_pyramid=2 / b_adapt=2 / b_bias=0 / direct=3 / weightb=1 / open_gop=0 / weightp=2 / keyint=250 / keyint_min=23 / scenecut=40 / intra_refresh=0 / rc_lookahead=60 / rc=2pass / mbtree=1 / bitrate=2150 / ratetol=1.0 / qcomp=0.60 / qpmin=0 / qpmax=69 / qpstep=4 / cplxblur=20.0 / qblur=0.5 / vbv_maxrate=31250 / vbv_bufsize=31250 / nal_hrd=none / filler=0 / ip_ratio=1.40 / aq=1:1.00
Default                                  : Yes
Forced                                   : No

Audio
ID                                       : 2
Format                                   : AC-3
Format/Info                              : Audio Coding 3
Mode extension                           : CM (complete main)
Format settings, Endianness              : Big
Codec ID                                 : A_AC3
Duration                                 : 1h 39mn
Bit rate mode                            : Constant
Bit rate                                 : 384 Kbps
Channel(s)                               : 6 channels
Channel positions                        : Front: L C R, Side: L R, LFE
Sampling rate                            : 48.0 KHz
Frame rate                               : 31.250 fps (1536 spf)
Compression mode                         : Lossy
Stream size                              : 273 MiB (15%)
Title                                    : Türkçe - Filmbol.org
Default                                  : Yes
Forced                                   : No

Text
ID                                       : 3
Format                                   : UTF-8
Codec ID                                 : S_TEXT/UTF8
Codec ID/Info                            : UTF-8 Plain Text
Duration                                 : 1h 28mn
Bit rate                                 : 0 bps
Count of elements                        : 22
Stream size                              : 616 Bytes (0%)
Title                                    : KISIM
Default                                  : Yes
Forced                                   : No

Film Detayları


Süper Polisler 2

Süper Polisler 2

Süper Polisler 2


Film Fragmanı


Film Detayları

Mini 1080P İndir



Uptobox ile indir

1Fichier ile indir

1Fichier'den İndiremiyor musun? Tıklayın!


Mega ile indir

MediaFire ile indir



Konu ile Alakalı Benzer Konular
Konular Yazar Yorumlar Okunma Son Yorum
Filmin Yayınlanma Tarihi: 2019
Tolkien (2019) Türkçe Dublaj BLURAY m1080P İndir BroserBros 4 427 , Saat: 15:29
Son Yorum: Rocklion17
Filmin Yayınlanma Tarihi: 2020
Deathstroke Şövalyeler ve Ejderhalar (Deathstroke Knights & Dragons: The Movie) - 2020 - TR+ORG - 1080P BroserBros 0 43 23-11-2020, Saat: 18:31
Son Yorum: BroserBros
Filmin Yayınlanma Tarihi: 2019
15 Dakika Savaş (L'intervention) - 2019 - TR+ORG - 1080P BroserBros 0 45 23-11-2020, Saat: 17:42
Son Yorum: BroserBros
Filmin Yayınlanma Tarihi: 2020
Sürprizli Gece (The Sleepover) - 2020 - TR+ORG - 1080P BroserBros 0 46 23-11-2020, Saat: 16:19
Son Yorum: BroserBros
Filmin Yayınlanma Tarihi: 2020
Feride (Feride) - 2020 - TR+ORG - 1080P BroserBros 0 77 22-11-2020, Saat: 20:24
Son Yorum: BroserBros

Hızlı Menü: