Filmbol Forum Film İndir 1080P v Suikastçı Topluluğu (Assassination Nation) Türkçe Dublaj BLURAY 1080P İndir
Mega linklerinin şikayet edilmemesi için global erişime kapatıp sadece yorum yapanlara açıyoruz. Bu linkleri gizleme işlemini mecburen yapıyoruz ve yorum yapmanızın siteye değil size faydası vardır. Teşekürler yazmayı çok görüp, Random/Spam mesajlar atarak Mega linklerini açmaya çalışan kullanıcılara önce süresiz ban, devam ederse IP ban atacağız.
Filmbol'da moderatör olmak ister misiniz? Bizimle iletişime geçmek için tıklayın!
Suikastçı Topluluğu (Assassination Nation) Türkçe Dublaj BLURAY 1080P İndir
BroserBros
Suikastçı Topluluğu (Assassination Nation) Türkçe Dublaj BLURAY 1080P İndir
0
306
  • Derecelendirme: 0/5 - 0 oy
  • 1
  • 2
  • 3
  • 4
  • 5
Konuyu Okuyanlar:1 Ziyaretçi
Şuan Online!
Filmin Yayınlanma Tarihi: 2018 
WWW
Şuan Online!
BroserBros Kurucu Admin
*******
Admin




diller


[TR]

altyazilar


Yok [Eklenebilir]

Video Format: Mkv


Matroska (.MKV)

Video Detay


MPEG-4, 2150Kbps, 1,62GB


Ses Kodek: AC3


Audio Coding 3 (AC3)

Ses Detay


192 Kbps, 2 Kanal, 148Mb


Genislik Yukseklik


1920-800





Suikastçı Topluluğu


Film Detayları

Lise son sınıf öğrencisi Lily (Odessa Young) ve en yakın arkadaşları tıpkı hepimiz gibi mesajlaştıkları, paylaşımlar yaptıkları, selfie çektikleri ve sohbet ettikleri bir dünya içinde yaşıyordur. Provokatör biri, herkesin özel yaşamlarıyla ilgili bilgileri internette paylaşmaya başlayınca ufak Salem şehrinde kıyamet kopar. Paylaşılan bilgiler arasında tarayıcı geçmişleri, özel mesajlaşmalar, yasa dışı indirmeler, gizli grup mesajlaşmaları ve çok çok daha kötü ayrıntılar vardır. İnsanlar öfkelenir. Hem de “çılgın cinayet ekipleri” kuracak kadar öfkelenirler. Lily de kendini tüm bunların tam ortasında bulur...

Suikastçı Topluluğu (Assassination Nation) Filmi Imdb'den 12,000 kişi tarafından oylandı ve 5,9 puan aldı. Bu film için editör puanı 5,5 olarak belirlendi. İyi Seyirler!


Teknik Detaylar


Kod :
General
Complete name                            : Suikastçi.Topluluğu.2018.1080p.BLURAY.x264.TR.Filmbol.mkv
Format                                   : Matroska
Format version                           : Version 4 / Version 2
File size                                : 1.77 GiB
Duration                                 : 1h 47mn
Overall bit rate                         : 2 343 Kbps
Movie name                               : Suikastçı Topluluğu (2018) - Filmbol.org
Encoded date                             : UTC 2019-12-18 03:20:32
Writing application                      : mkvmerge v35.0.0 ('All The Love In The World') 64-bit
Writing library                          : libebml v1.3.9 + libmatroska v1.5.2

Video
ID                                       : 1
Format                                   : AVC
Format/Info                              : Advanced Video Codec
Format profile                           : [email protected]
Format settings, CABAC                   : Yes
Format settings, ReFrames                : 4 frames
Codec ID                                 : V_MPEG4/ISO/AVC
Duration                                 : 1h 47mn
Bit rate                                 : 2 150 Kbps
Width                                    : 1 920 pixels
Height                                   : 800 pixels
Display aspect ratio                     : 2.40:1
Frame rate mode                          : Constant
Frame rate                               : 23.976 (24000/1001) fps
Color space                              : YUV
Chroma subsampling                       : 4:2:0
Bit depth                                : 8 bits
Scan type                                : Progressive
Bits/(Pixel*Frame)                       : 0.058
Stream size                              : 1.62 GiB (92%)
Title                                    : 1080P - Filmbol.org
Writing library                          : x264 core 157
Default                                  : Yes
Forced                                   : No

Audio
ID                                       : 2
Format                                   : AC-3
Format/Info                              : Audio Coding 3
Mode extension                           : CM (complete main)
Format settings, Endianness              : Big
Codec ID                                 : A_AC3
Duration                                 : 1h 47mn
Bit rate mode                            : Constant
Bit rate                                 : 192 Kbps
Channel(s)                               : 2 channels
Channel positions                        : Front: L R
Sampling rate                            : 48.0 KHz
Frame rate                               : 31.250 fps (1536 spf)
Compression mode                         : Lossy
Stream size                              : 148 MiB (8%)
Title                                    : Türkçe - Filmbol.org
Language                                 : Turkish
Default                                  : Yes
Forced                                   : No

Film Detayları


Assassination Nation

Assassination Nation

Assassination Nation


Film Fragmanı


Film Detayları

Mini 1080P İndir



Uptobox ile indir

1Fichier ile indir

1Fichier'den İndiremiyor musun? Tıklayın!


LetsUpload ile indir

Mega linki şuan da gizli. Kullanıma açmak için konuya yorum yapın ve ardından sayfayı yenileyin.

Mega


MediaFire ile indir



Konu ile Alakalı Benzer Konular
Konular Yazar Yorumlar Okunma Son Yorum
Filmin Yayınlanma Tarihi: 2017
The Babysitter (The Babysitte) - 2017 - TR+ORG - 1080P | tt4225622 TheSteeL 0 14 3 saat önce
Son Yorum: TheSteeL
Filmin Yayınlanma Tarihi: 2020
Bebek Bakıcısı: Katil Kraliçe (The Babysitter: Killer Queen) - 2020 - TR+ORG - 1080P | tt11024272 TheSteeL 0 14 3 saat önce
Son Yorum: TheSteeL
Filmin Yayınlanma Tarihi: 2018
Örümcek Adam: Örümcek Evreninde (Spider-Man) Türkçe Dublaj BLURAY m1080P İndir BroserBros 37 3,067 4 saat önce
Son Yorum: avni12345
Filmin Yayınlanma Tarihi: 2013
Hobbit: Smaug'un Çorak Toprakları Türkçe Dublaj 1080P İndir BroserBros 18 4,279 5 saat önce
Son Yorum: uvenix
Filmin Yayınlanma Tarihi: 2012
Hobbit: Beklenmedik Yolculuk (An Unexpected Journey) Türkçe Dublaj 1080P İndir BroserBros 16 6,228 6 saat önce
Son Yorum: uvenix

Hızlı Menü: