Filmbol Forum Film İndir 1080P v Suikastçi (The Assassin's Code) Türkçe Dublaj BLURAY 1080P İndir
Mega linklerinin şikayet edilmemesi için global erişime kapatıp sadece yorum yapanlara açıyoruz. Bu linkleri gizleme işlemini mecburen yapıyoruz ve yorum yapmanızın siteye değil size faydası vardır. Teşekürler yazmayı çok görüp, Random/Spam mesajlar atarak Mega linklerini açmaya çalışan kullanıcılara önce süresiz ban, devam ederse IP ban atacağız.
Filmbol'da moderatör olmak ister misiniz? Bizimle iletişime geçmek için tıklayın!
Suikastçi (The Assassin's Code) Türkçe Dublaj BLURAY 1080P İndir
BroserBros
Suikastçi (The Assassin's Code) Türkçe Dublaj BLURAY 1080P İndir
0
212
  • Derecelendirme: 0/5 - 0 oy
  • 1
  • 2
  • 3
  • 4
  • 5
Konuyu Okuyanlar:1 Ziyaretçi
Şuan Online!
Filmin Yayınlanma Tarihi: 2018 
WWW
Şuan Online!
BroserBros Kurucu Admin
*******
Admin








 Suikastçi



Cleveland polis departmanında göreve başlayan çaylak dedektif Michael, rahmetli babasının gölgesinden çıkmak için çabalamaktadır. Michael’ın babası, o çocukken uyuşturucu skandalından hüküm görmüş bir dedektiftir. Babasının meslekten men edilmesine neden olan skandalı sorma imkanı bulamayan Micheal, hayatını onun gölgesi altında yaşamaktan fazlasıyla bunalmıştır. Şimdi ise babasının gölgesinden kurtulmak ve kendini katılmak için eline büyük bir fırsat geçer. Polisin elinde bulunan 1 milyon değerindeki uyuşturucu çalınıp, üstüne davayı yürüten dedektif ölünce Miacheal davayı almak için amirine yalvarır. Eline geçen fırsatı kaçırmak istemeyen Michael, davayı almayı başarınca hızla çalışmalara başlar. Soruşturma ilerledikçe davanın asıl yüzünü öğrenen Michael, bu süreçte gerçeklerin ortaya çıkmasını önlemeye çalışan suikastçılarla savaşmak zorunda kalır.

Suikastçi (2018) (The Assassin's Code) Filmi Imdb'den 1,000 kişi tarafından oylandı ve 5,0 puan aldı. Bu film için editör puanı 5,5 olarak belirlendi. İyi Seyirler!

Teknik Detaylar

Kod :
General
Unique ID                                : 286076552477623082364520994222061371911 (0xD7385702666AA0D3851FC608786FC207)
Complete name                            : /root/Desktop/6/Suikastçi.2018.BluRay.1080p.x264.TR.Filmbol.mkv
Format                                   : Matroska
Format version                           : Version 4 / Version 2
File size                                : 1.50 GiB
Duration                                 : 1h 35mn
Overall bit rate                         : 2 235 Kbps
Movie name                               : Suikastçi (2018) - Filmbol.org
Encoded date                             : UTC 2020-01-31 15:29:26
Writing application                      : mkvmerge v35.0.0 ('All The Love In The World') 64-bit
Writing library                          : libebml v1.3.9 + libmatroska v1.5.2

Video
ID                                       : 1
Format                                   : AVC
Format/Info                              : Advanced Video Codec
Format profile                           : [email protected]
Format settings, CABAC                   : Yes
Format settings, ReFrames                : 2 frames
Codec ID                                 : V_MPEG4/ISO/AVC
Duration                                 : 1h 35mn
Bit rate                                 : 2 041 Kbps
Width                                    : 1 920 pixels
Height                                   : 800 pixels
Display aspect ratio                     : 2.40:1
Frame rate mode                          : Constant
Frame rate                               : 23.976 (24000/1001) fps
Color space                              : YUV
Chroma subsampling                       : 4:2:0
Bit depth                                : 8 bits
Scan type                                : Progressive
Bits/(Pixel*Frame)                       : 0.055
Stream size                              : 1.37 GiB (91%)
Title                                    : 1080P - Filmbol.org
Language                                 : English
Default                                  : Yes
Forced                                   : No

Audio
ID                                       : 2
Format                                   : AC-3
Format/Info                              : Audio Coding 3
Mode extension                           : CM (complete main)
Format settings, Endianness              : Big
Codec ID                                 : A_AC3
Duration                                 : 1h 35mn
Bit rate mode                            : Constant
Bit rate                                 : 192 Kbps
Channel(s)                               : 2 channels
Channel positions                        : Front: L R
Sampling rate                            : 48.0 KHz
Frame rate                               : 31.250 fps (1536 spf)
Compression mode                         : Lossy
Stream size                              : 132 MiB (9%)
Title                                    : Türkçe - Filmbol.org
Language                                 : Turkish
Default                                  : Yes
Forced                                   : No

Film Detayları


 Suikastçi

 Suikastçi

 Suikastçi


Film Fragmanı


Film Detayları

Mini 1080P İndir

Uptobox ile indir

1Fichier ile indir

1Fichier'den İndiremiyor musun? Tıklayın!


Mega linki şuan da gizli. Kullanıma açmak için konuya yorum yapın ve ardından sayfayı yenileyin.

Mega


MediaFire ile indir



Konu ile Alakalı Benzer Konular
Konular Yazar Yorumlar Okunma Son Yorum
Filmin Yayınlanma Tarihi: 1974
Baba 2 (The Godfather: Part II) - 1974 - TR+ORG - 1080P | tt0071562 BroserBros 1 266 49 dakika önce
Son Yorum: BroserBros
Filmin Yayınlanma Tarihi: 2008
VOL-i (WALL-E) - 2008 - TR+ORG - 1080P | tt0910970 BroserBros 4 421 51 dakika önce
Son Yorum: BroserBros
Filmin Yayınlanma Tarihi: 1972
Baba (The Godfather) - 1972 - TR+ORG - 1080P | tt0068646 BroserBros 1 233 1 saat önce
Son Yorum: BroserBros
Filmin Yayınlanma Tarihi: 1990
Baba 3 (The Godfather: Part III) - 1990 - TR+ORG - 1080P | tt0099674 BroserBros 1 266 1 saat önce
Son Yorum: BroserBros
Filmin Yayınlanma Tarihi: 1998
Armageddon (Armageddon) - 1998 - TR+ORG - 1080P | tt0120591 BroserBros 1 260 3 saat önce
Son Yorum: BroserBros

Hızlı Menü: