Filmbol Forum Film İndir 720P v Suikastçi (American Assassin) Türkçe Dublaj BLURAY 720P İndir
Filmbol'da moderatör olmak ister misiniz? Bizimle iletişime geçmek için tıklayın!
Suikastçi (American Assassin) Türkçe Dublaj BLURAY 720P İndir
BroserBros
Suikastçi (American Assassin) Türkçe Dublaj BLURAY 720P İndir
0
193
  • Derecelendirme: 0/5 - 0 oy
  • 1
  • 2
  • 3
  • 4
  • 5
Konuyu Okuyanlar:1 Ziyaretçi
Şuan Online!
Filmin Yayınlanma Tarihi: 2017 
Şuan Online!
BroserBros Kurucu Admin
*******
Admin

Vizyon Tarihi


15 Eylül 2017

imdb puanı


6,2 / 62,000

süre


112 dakika

Editör Puanı


6,7

Video Format: Mkv


Matroska (.MKV)

Ses Kodek: AC3


Audio Coding 3 (AC3)

sürüm


x264 | 720P | BLURAY

Boyutlar


1,35



Suikastçi



Film Detayları

14 yaşındayken ailesini trajik bir trafik kazasında kaybeden Mitch'in hayatını trajediler bırakmaz. 23 yaşında kız arkadaşı Katrina'ya evlenme teklifi ettiği gün, bir grup terörist bulundukları yere silahlı saldırıda bulunur ve Katrina hayatını kaybeder. Yaşadığı bu talihsiz olaydan sonra intikam yemini eden Mitch, CIA Genel Müdür Yardımcısı Irene Kennedy tarafından işe alınır. Kennedy, Mitch'nin eğitilmesi için Soğuk Savaş gazisi Stan Hurley'i görevlendirir. Birlikte sivil ve askeri hedeflere yönelik gerçekleştirilen saldırıları araştırmaya başlarlar. Yaptıkları araştırmalarla, bir ajanın Orta Doğu'da 3. Dünya Savaşı'nı başlatmak istediğini keşfeden ikili, kendilerini tehlikeli bir mücadelenin içinde bulurlar.

Suikastçi (American Assassin) Filmi Imdb'den 62,000 kişi tarafından oylandı ve 6,2 puan aldı. Bu film için editör puanı 6,7 olarak belirlendi. İyi Seyirler!


Teknik Detaylar


Kod :
General
Unique ID                                : 288925020387117869465037168985212270446 (0xD95CEF51FA302B1D61DBCA1ACF01376E)
Complete name                            : /root/Desktop/7/Suikastçi.2018.720p.BluRay.x264.TR.Filmbol.mkv
Format                                   : Matroska
Format version                           : Version 4 / Version 2
File size                                : 873 MiB
Duration                                 : 1h 51mn
Overall bit rate                         : 1 093 Kbps
Movie name                               : American Assassin (2018) - Filmbol.org
Encoded date                             : UTC 2020-01-05 02:15:53
Writing application                      : mkvmerge v35.0.0 ('All The Love In The World') 64-bit
Writing library                          : libebml v1.3.9 + libmatroska v1.5.2

Video
ID                                       : 1
Format                                   : AVC
Format/Info                              : Advanced Video Codec
Format profile                           : High@L4.1
Format settings, CABAC                   : Yes
Format settings, ReFrames                : 4 frames
Codec ID                                 : V_MPEG4/ISO/AVC
Duration                                 : 1h 51mn
Bit rate                                 : 900 Kbps
Width                                    : 1 280 pixels
Height                                   : 534 pixels
Display aspect ratio                     : 2.40:1
Original display aspect ratio            : 2.40:1
Frame rate mode                          : Constant
Frame rate                               : 23.976 (24000/1001) fps
Color space                              : YUV
Chroma subsampling                       : 4:2:0
Bit depth                                : 8 bits
Scan type                                : Progressive
Bits/(Pixel*Frame)                       : 0.055
Stream size                              : 718 MiB (82%)
Title                                    : 720P - Filmbol.org
Writing library                          : x264 core 148
Encoding settings                        : cabac=1 / ref=4 / deblock=1:-1:-1 / analyse=0x3:0x133 / me=umh / subme=9 / psy=1 / psy_rd=1.00:0.15 / mixed_ref=1 / me_range=24 / chroma_me=1 / trellis=2 / 8x8dct=1 / cqm=0 / deadzone=21,11 / fast_pskip=0 / chroma_qp_offset=-3 / threads=12 / lookahead_threads=1 / sliced_threads=0 / nr=0 / decimate=1 / interlaced=0 / bluray_compat=0 / constrained_intra=0 / bframes=3 / b_pyramid=2 / b_adapt=2 / b_bias=0 / direct=3 / weightb=1 / open_gop=0 / weightp=2 / keyint=250 / keyint_min=23 / scenecut=40 / intra_refresh=0 / rc_lookahead=60 / rc=2pass / mbtree=1 / bitrate=900 / ratetol=1.0 / qcomp=0.60 / qpmin=0 / qpmax=69 / qpstep=4 / cplxblur=20.0 / qblur=0.5 / vbv_maxrate=31250 / vbv_bufsize=31250 / nal_hrd=none / filler=0 / ip_ratio=1.40 / aq=1:1.00
Default                                  : Yes
Forced                                   : No

Audio
ID                                       : 2
Format                                   : AC-3
Format/Info                              : Audio Coding 3
Mode extension                           : CM (complete main)
Format settings, Endianness              : Big
Codec ID                                 : A_AC3
Duration                                 : 1h 51mn
Bit rate mode                            : Constant
Bit rate                                 : 192 Kbps
Channel(s)                               : 2 channels
Channel positions                        : Front: L R
Sampling rate                            : 48.0 KHz
Frame rate                               : 31.250 fps (1536 spf)
Compression mode                         : Lossy
Stream size                              : 153 MiB (18%)
Title                                    : Türkçe - Filmbol.org
Language                                 : Turkish
Default                                  : Yes
Forced                                   : No

Film Detayları


Suikastçi

Suikastçi

Suikastçi


Film Fragmanı


Film Detayları

Mini 720P İndir



Uptobox ile indir

1Fichier ile indir

1Fichier'den İndiremiyor musun? Tıklayın!


Mega ile indir

MediaFire ile indir



Konu ile Alakalı Benzer Konular
Konular Yazar Yorumlar Okunma Son Yorum
Filmin Yayınlanma Tarihi: 2020
Deathstroke Şövalyeler ve Ejderhalar (Deathstroke Knights & Dragons: The Movie) - 2020 - TR+ORG - 720P BroserBros 0 45 23-11-2020, Saat: 18:30
Son Yorum: BroserBros
Filmin Yayınlanma Tarihi: 2019
15 Dakika Savaş (L'intervention) - 2019 - TR+ORG - 720P BroserBros 0 47 23-11-2020, Saat: 17:42
Son Yorum: BroserBros
Filmin Yayınlanma Tarihi: 2020
Sürprizli Gece (The Sleepover) - 2020 - TR+ORG - 720P BroserBros 0 47 23-11-2020, Saat: 16:19
Son Yorum: BroserBros
Filmin Yayınlanma Tarihi: 2020
Feride (Feride) - 2020 - TR+ORG - 720P BroserBros 0 68 22-11-2020, Saat: 20:23
Son Yorum: BroserBros
Filmin Yayınlanma Tarihi: 2019
Gel Babacığına (Come to Daddy) - 2019 - TR+ORG - 720P BroserBros 0 33 22-11-2020, Saat: 17:43
Son Yorum: BroserBros

Hızlı Menü: