Filmbol Forum Film İndir BRRip XviD v Steve McQueen'i Bulmak (Finding Steve McQueen) Türkçe Dublaj BRRip XviD İndir
Moderatör Alımları Başladı! Başvuru yapmak için tıklayın.
Filmbol Premium'da %50'e varan indirim fırsatı!
Steve McQueen'i Bulmak (Finding Steve McQueen) Türkçe Dublaj BRRip XviD İndir
BroserBros
Steve McQueen'i Bulmak (Finding Steve McQueen) Türkçe Dublaj BRRip XviD İndir
0
314
  • Derecelendirme: 0/5 - 0 oy
  • 1
  • 2
  • 3
  • 4
  • 5
Konuyu Okuyanlar:1 Ziyaretçi
Şuan Online!
Filmin Yayınlanma Tarihi: 2019 
Şuan Online!
BroserBros Kurucu Admin
*******
Admin

Vizyon Tarihi


15 Mayıs 2019

imdb puanı


6,2 / 3,000

süre


91 dakika

Editör Puanı


5,9 / 10

Video Format: Avi


Audio Video Interleave (.AVI)

Ses Kodek: MP3


MPEG-1 Audio Layer III (MP3)

sürüm


h263 | BRRip XviD

Boyutlar


1,11



Steve Mcqueeni Bulmak



Youngstown, Ohio'dan bir hırsız çetesine odaklanıyor. Birbirlerine oldukça bağlı olan çete üyeleri, 1972 yılında Başkan Richard Nixon'ın gizli fonundan 30 milyon dolar çalmaya karar verir. Planları çok geçmeden ters gider ve çetenin yakalanması için FBI tarihindeki en büyük insan avı başlatılır.

Steve McQueen'i Bulmak (2019) (Finding Steve McQueen) Filmi Imdb'den 3,000 kişi tarafından oylandı ve 6,2 puan aldı. Bu film için editör puanı 5,9 olarak belirlendi. İyi Seyirler!

Teknik Detaylar

Kod :
General Complete name                            : /root/Desktop/9/Steve.McQuenni.Bulmak.2019.BRRip.XviD.TR.Filmbol.avi Format                                   : AVI Format/Info                              : Audio Video Interleave File size                                : 1.11 GiB Duration                                 : 1h 31mn Overall bit rate                         : 1 741 Kbps  Video ID                                       : 0 Format                                   : MPEG-4 Visual Format profile                           : Simple@L5 Format settings, BVOP                    : No Format settings, QPel                    : No Format settings, GMC                     : No warppoints Format settings, Matrix                  : Default (H.263) Codec ID                                 : XVID Codec ID/Hint                            : XviD Duration                                 : 1h 31mn Bit rate                                 : 1 600 Kbps Width                                    : 720 pixels Height                                   : 390 pixels Display aspect ratio                     : 1.85:1 Frame rate                               : 23.976 fps Color space                              : YUV Chroma subsampling                       : 4:2:0 Bit depth                                : 8 bits Scan type                                : Progressive Compression mode                         : Lossy Bits/(Pixel*Frame)                       : 0.238 Stream size                              : 1.02 GiB (92%) Writing library                          : Lavc58.35.100  Audio ID                                       : 1 Format                                   : MPEG Audio Format version                           : Version 1 Format profile                           : Layer 3 Mode                                     : Joint stereo Mode extension                           : MS Stereo Codec ID                                 : 55 Codec ID/Hint                            : MP3 Duration                                 : 1h 31mn Bit rate mode                            : Constant Bit rate                                 : 128 Kbps Channel(s)                               : 2 channels Sampling rate                            : 48.0 KHz Compression mode                         : Lossy Stream size                              : 83.9 MiB (7%) Alignment                                : Aligned on interleaves Interleave, duration                     : 24 ms (0.58 video frame)

Film Detayları


Steve Mcqueeni Bulmak

Steve Mcqueeni Bulmak

Steve Mcqueeni Bulmak


Film Fragmanı


Film Detayları

Brrip İndir

Uptobox ile indir

1Fichier ile indir

1Fichier'den İndiremiyor musun? Tıklayın!


Mega ile indir

MediaFire ile indir



Konu ile Alakalı Benzer Konular
Konular Yazar Yorumlar Okunma Son Yorum
Filmin Yayınlanma Tarihi: 2020
Larva Adası Filmi (The Larva Island Movie) - 2020 - TR - BRRip XviD BroserBros 0 35 , Saat: 20:05
Son Yorum: BroserBros
Filmin Yayınlanma Tarihi: 2019
Uyanış (Wake Up) - 2019 - TR - BRRip XviD BroserBros 0 36 , Saat: 19:49
Son Yorum: BroserBros
Filmin Yayınlanma Tarihi: 2019
Villains (Villains) - 2019 - TR - BRRip XviD BroserBros 0 65 11-08-2020, Saat: 15:41
Son Yorum: BroserBros
Filmin Yayınlanma Tarihi: 2018
Venom: Zehirli Öfke Türkçe Dublaj Brrip-Xvid İndir DRMOV 5 960 10-08-2020, Saat: 03:58
Son Yorum: sectechno
Filmin Yayınlanma Tarihi: 2020
Fatal Affair (Fatal Affair) - 2020 - TR - BRRip XviD BroserBros 0 148 07-08-2020, Saat: 20:13
Son Yorum: BroserBros

Hızlı Menü: