Hoşgeldin, Ziyaretçi: Giriş Yap Üye Ol


Konuyu Oyla:
  • Derecelendirme: 0/5 - 0 oy
  • 1
  • 2
  • 3
  • 4
  • 5
Title: Steve McQueen'i Bulmak (Finding Steve McQueen) Türkçe Dublaj BRRip XviD İndir
Gösterim Stili
#1
Filmin Yayınlanma Tarihi: 2019 

vizyon tarihi


15 Mayıs 2019

imdb puanı


6,2 / 3,000

süre


91 dakika

Editör Puanı


5,9 / 10

Video Format: Avi


Audio Video Interleave (.AVI)

Ses Kodek: MP3


MPEG-1 Audio Layer III (MP3)

sürüm


h263 | BRRip XviD

Boyutlar


1,11



Steve Mcqueeni Bulmak



Youngstown, Ohio'dan bir hırsız çetesine odaklanıyor. Birbirlerine oldukça bağlı olan çete üyeleri, 1972 yılında Başkan Richard Nixon'ın gizli fonundan 30 milyon dolar çalmaya karar verir. Planları çok geçmeden ters gider ve çetenin yakalanması için FBI tarihindeki en büyük insan avı başlatılır.

Steve McQueen'i Bulmak (2019) (Finding Steve McQueen) Filmi Imdb'den 3,000 kişi tarafından oylandı ve 6,2 puan aldı. Bu film için editör puanı 5,9 olarak belirlendi. İyi Seyirler!

Teknik Detaylar

Kod:
General Complete name                            : /root/Desktop/9/Steve.McQuenni.Bulmak.2019.BRRip.XviD.TR.Filmbol.avi Format                                   : AVI Format/Info                              : Audio Video Interleave File size                                : 1.11 GiB Duration                                 : 1h 31mn Overall bit rate                         : 1 741 Kbps  Video ID                                       : 0 Format                                   : MPEG-4 Visual Format profile                           : Simple@L5 Format settings, BVOP                    : No Format settings, QPel                    : No Format settings, GMC                     : No warppoints Format settings, Matrix                  : Default (H.263) Codec ID                                 : XVID Codec ID/Hint                            : XviD Duration                                 : 1h 31mn Bit rate                                 : 1 600 Kbps Width                                    : 720 pixels Height                                   : 390 pixels Display aspect ratio                     : 1.85:1 Frame rate                               : 23.976 fps Color space                              : YUV Chroma subsampling                       : 4:2:0 Bit depth                                : 8 bits Scan type                                : Progressive Compression mode                         : Lossy Bits/(Pixel*Frame)                       : 0.238 Stream size                              : 1.02 GiB (92%) Writing library                          : Lavc58.35.100  Audio ID                                       : 1 Format                                   : MPEG Audio Format version                           : Version 1 Format profile                           : Layer 3 Mode                                     : Joint stereo Mode extension                           : MS Stereo Codec ID                                 : 55 Codec ID/Hint                            : MP3 Duration                                 : 1h 31mn Bit rate mode                            : Constant Bit rate                                 : 128 Kbps Channel(s)                               : 2 channels Sampling rate                            : 48.0 KHz Compression mode                         : Lossy Stream size                              : 83.9 MiB (7%) Alignment                                : Aligned on interleaves Interleave, duration                     : 24 ms (0.58 video frame)

Film Detayları


Steve Mcqueeni Bulmak

Steve Mcqueeni Bulmak

Steve Mcqueeni Bulmak


Film Fragmanı


Film Detayları


Brrip İndir

Uptobox ile indir

1Fichier ile indir

Mega linki şuan da gizli. Kullanıma açmak için konuya yorum yapın ve ardından sayfayı yenileyin. Ayrıca bu linki açtığınızda reklamsız olarak erişebileceğinizi unutmayın.

Mega


Mediafire linki şuan da gizli. Kullanıma açmak için konuya yorum yapın ve ardından sayfayı yenileyin. Ayrıca bu linki açtığınızda reklamsız olarak erişebileceğinizi unutmayın.

Mediafire

 
Cevapla
  


Konu ile Alakalı Benzer Konular
Konular Yazar Yorumlar Okunma Son Yorum
Filmin Yayınlanma Tarihi: 2018 Acayip Güzelim (I Feel Pretty) Türkçe Dublaj Brrip Xvid İndir BroserBros 1 70 21-12-2019, Saat: 16:02
Son Yorum: komador06
Filmin Yayınlanma Tarihi: 2018 Sır Tutabilir Misin? (Can You Keep a Secret?) Türkçe Dublaj Brrip Xvid İndir BroserBros 1 151 21-12-2019, Saat: 15:59
Son Yorum: komador06
Filmin Yayınlanma Tarihi: 2018 Tutsak (Bel Canto) Türkçe Dublaj Brrip Xvid İndir BroserBros 0 118 20-12-2019, Saat: 20:28
Son Yorum: BroserBros
Filmin Yayınlanma Tarihi: 2019 Marriage Story (2019) Türkçe Dublaj Brrip Xvid İndir BroserBros 2 398 19-12-2019, Saat: 09:37
Son Yorum: ftpllt2
Filmin Yayınlanma Tarihi: 2018 Gloria Bell (2018) Türkçe Dublaj Brrip Xvid İndir BroserBros 0 86 18-12-2019, Saat: 16:23
Son Yorum: BroserBros

Hızlı Menü:


Browsing: 1 Ziyaretçi