Filmbol Forum Film İndir 720P v Steve McQueen'i Bulmak (Finding Steve McQueen) Türkçe Dublaj BLURAY 720P İndir
Filmbol'da moderatör olmak ister misiniz? Bizimle iletişime geçmek için tıklayın!
Steve McQueen'i Bulmak (Finding Steve McQueen) Türkçe Dublaj BLURAY 720P İndir
BroserBros
Steve McQueen'i Bulmak (Finding Steve McQueen) Türkçe Dublaj BLURAY 720P İndir
1
399
  • Derecelendirme: 0/5 - 0 oy
  • 1
  • 2
  • 3
  • 4
  • 5
Konuyu Okuyanlar:1 Ziyaretçi
Şuan Online!
Filmin Yayınlanma Tarihi: 2019 
Şuan Online!
BroserBros Kurucu Admin
*******
Admin

Vizyon Tarihi


15 Mayıs 2019

imdb puanı


6,2 / 3,000

süre


91 dakika

Editör Puanı


5,9 / 10

Video Format: Mkv


Matroska (.MKV)

Ses Kodek: AC3


Audio Coding 3 (AC3)

sürüm


x264 | 720P | BLURAY

Boyutlar


0,78



Steve Mcqueeni Bulmak



Youngstown, Ohio'dan bir hırsız çetesine odaklanıyor. Birbirlerine oldukça bağlı olan çete üyeleri, 1972 yılında Başkan Richard Nixon'ın gizli fonundan 30 milyon dolar çalmaya karar verir. Planları çok geçmeden ters gider ve çetenin yakalanması için FBI tarihindeki en büyük insan avı başlatılır.

Steve McQueen'i Bulmak (2019) (Finding Steve McQueen) Filmi Imdb'den 3,000 kişi tarafından oylandı ve 6,2 puan aldı. Bu film için editör puanı 5,9 olarak belirlendi. İyi Seyirler!

Teknik Detaylar

Kod :
General Unique ID                                : 163861951673711405680308944524303620284 (0x7B46A9F8752B38101F905FC4162B58BC) Complete name                            : /root/Desktop/9/Steve.McQuenni.Bulmak.2019.720p.BluRay.x264.TR.Filmbol.mkv Format                                   : Matroska Format version                           : Version 4 / Version 2 File size                                : 782 MiB Duration                                 : 1h 31mn Overall bit rate                         : 1 193 Kbps Movie name                               : Steve McQuenn"i Bulmak (2019) - Filmbol.org Encoded date                             : UTC 2020-01-09 00:19:22 Writing application                      : mkvmerge v35.0.0 ('All The Love In The World') 64-bit Writing library                          : libebml v1.3.9 + libmatroska v1.5.2  Video ID                                       : 1 Format                                   : AVC Format/Info                              : Advanced Video Codec Format profile                           : High@L4.1 Format settings, CABAC                   : Yes Format settings, ReFrames                : 4 frames Codec ID                                 : V_MPEG4/ISO/AVC Duration                                 : 1h 31mn Bit rate                                 : 1 000 Kbps Width                                    : 1 280 pixels Height                                   : 682 pixels Display aspect ratio                     : 1.85:1 Frame rate mode                          : Constant Frame rate                               : 23.976 (24000/1001) fps Color space                              : YUV Chroma subsampling                       : 4:2:0 Bit depth                                : 8 bits Scan type                                : Progressive Bits/(Pixel*Frame)                       : 0.048 Stream size                              : 655 MiB (84%) Title                                    : 720P - Filmbol.org Writing library                          : x264 core 152 Encoding settings                        : cabac=1 / ref=4 / deblock=1:-1:-1 / analyse=0x3:0x133 / me=umh / subme=9 / psy=1 / psy_rd=1.00:0.15 / mixed_ref=1 / me_range=24 / chroma_me=1 / trellis=2 / 8x8dct=1 / cqm=0 / deadzone=21,11 / fast_pskip=0 / chroma_qp_offset=-3 / threads=12 / lookahead_threads=1 / sliced_threads=0 / nr=0 / decimate=1 / interlaced=0 / bluray_compat=0 / constrained_intra=0 / bframes=3 / b_pyramid=2 / b_adapt=2 / b_bias=0 / direct=3 / weightb=1 / open_gop=0 / weightp=2 / keyint=250 / keyint_min=23 / scenecut=40 / intra_refresh=0 / rc_lookahead=60 / rc=2pass / mbtree=1 / bitrate=1000 / ratetol=1.0 / qcomp=0.60 / qpmin=0 / qpmax=69 / qpstep=4 / cplxblur=20.0 / qblur=0.5 / vbv_maxrate=31250 / vbv_bufsize=31250 / nal_hrd=none / filler=0 / ip_ratio=1.40 / aq=1:1.00 Default                                  : Yes Forced                                   : No  Audio ID                                       : 2 Format                                   : AC-3 Format/Info                              : Audio Coding 3 Mode extension                           : CM (complete main) Format settings, Endianness              : Big Codec ID                                 : A_AC3 Duration                                 : 1h 31mn Bit rate mode                            : Constant Bit rate                                 : 192 Kbps Channel(s)                               : 2 channels Channel positions                        : Front: L R Sampling rate                            : 48.0 KHz Frame rate                               : 31.250 fps (1536 spf) Compression mode                         : Lossy Stream size                              : 126 MiB (16%) Title                                    : Türkçe - Filmbol.org Language                                 : Turkish Default                                  : Yes Forced                                   : No

Film Detayları


Steve Mcqueeni Bulmak

Steve Mcqueeni Bulmak

Steve Mcqueeni Bulmak


Film Fragmanı


Film Detayları

Mini 720P İndir

Uptobox ile indir

1Fichier ile indir

1Fichier'den İndiremiyor musun? Tıklayın!


Mega ile indir

MediaFire ile indir

Şuan Offine!
Şuan Offine!
ondes6060 Uzman Üye
**
Uzman Üye

  • Konular0
  • Mesajlar10
  • Rep puanı 0
Smile Smile


Konu ile Alakalı Benzer Konular
Konular Yazar Yorumlar Okunma Son Yorum
Filmin Yayınlanma Tarihi: 2018
Döndüm Ben (Yerli) - 2018 - TR+ORG - 720P BroserBros 0 6 2 saat önce
Son Yorum: BroserBros
Filmin Yayınlanma Tarihi: 2018
Bana Bir Soygun Yaz 2 (Yerli) - 2018 - TR+ORG - 720P BroserBros 0 7 2 saat önce
Son Yorum: BroserBros
Filmin Yayınlanma Tarihi: 2019
Hain (The Traitor / Il traditore) - 2019 - TR+ORG - 720P BroserBros 0 37 , Saat: 16:04
Son Yorum: BroserBros
Filmin Yayınlanma Tarihi: 2020
All Together Now (All Together Now) - 2020 - TR+ORG - 720P BroserBros 0 32 , Saat: 15:48
Son Yorum: BroserBros
Filmin Yayınlanma Tarihi: 2019
Ibiza (Ibiza) - 2019 - TR+ORG - 720P BroserBros 0 31 , Saat: 14:56
Son Yorum: BroserBros

Hızlı Menü: