Filmbol Forum Film İndir 1080P v Steve McQueen'i Bulmak (Finding Steve McQueen) Türkçe Dublaj BLURAY 1080P İndir
Moderatör Alımları Başladı! Başvuru yapmak için tıklayın.
Filmbol Premium'da %50'e varan indirim fırsatı!
Steve McQueen'i Bulmak (Finding Steve McQueen) Türkçe Dublaj BLURAY 1080P İndir
BroserBros
Steve McQueen'i Bulmak (Finding Steve McQueen) Türkçe Dublaj BLURAY 1080P İndir
0
283
  • Derecelendirme: 0/5 - 0 oy
  • 1
  • 2
  • 3
  • 4
  • 5
Konuyu Okuyanlar:1 Ziyaretçi
Şuan Online!
Filmin Yayınlanma Tarihi: 2019 
Şuan Online!
BroserBros Kurucu Admin
*******
Admin

Vizyon Tarihi


15 Mayıs 2019

imdb puanı


6,2 / 3,000

süre


91 dakika

Editör Puanı


5,9 / 10

Video Format: Mkv


Matroska (.MKV)

Ses Kodek: AC3


Audio Coding 3 (AC3)

sürüm


x264 | 1080P | BLURAY

Boyutlar


1,40



Steve Mcqueeni Bulmak



Youngstown, Ohio'dan bir hırsız çetesine odaklanıyor. Birbirlerine oldukça bağlı olan çete üyeleri, 1972 yılında Başkan Richard Nixon'ın gizli fonundan 30 milyon dolar çalmaya karar verir. Planları çok geçmeden ters gider ve çetenin yakalanması için FBI tarihindeki en büyük insan avı başlatılır.

Steve McQueen'i Bulmak (2019) (Finding Steve McQueen) Filmi Imdb'den 3,000 kişi tarafından oylandı ve 6,2 puan aldı. Bu film için editör puanı 5,9 olarak belirlendi. İyi Seyirler!

Teknik Detaylar

Kod :
General Unique ID                                : 245173440226373205758882832610954809033 (0xB872AFDFE3D88124DB8209AA594F8EC9) Complete name                            : /root/Desktop/9/Steve.McQuenni.Bulmak.2019.1080p.BluRay.x264.TR.Filmbol.mkv Format                                   : Matroska Format version                           : Version 4 / Version 2 File size                                : 1.40 GiB Duration                                 : 1h 31mn Overall bit rate                         : 2 192 Kbps Movie name                               : Steve McQuenn"i Bulmak (2019) - Filmbol.org Encoded date                             : UTC 2020-01-09 00:20:05 Writing application                      : mkvmerge v35.0.0 ('All The Love In The World') 64-bit Writing library                          : libebml v1.3.9 + libmatroska v1.5.2  Video ID                                       : 1 Format                                   : AVC Format/Info                              : Advanced Video Codec Format profile                           : High@L4.1 Format settings, CABAC                   : Yes Format settings, ReFrames                : 4 frames Codec ID                                 : V_MPEG4/ISO/AVC Duration                                 : 1h 31mn Bit rate                                 : 2 000 Kbps Width                                    : 1 920 pixels Height                                   : 1 024 pixels Display aspect ratio                     : 1.85:1 Frame rate mode                          : Constant Frame rate                               : 23.976 (24000/1001) fps Color space                              : YUV Chroma subsampling                       : 4:2:0 Bit depth                                : 8 bits Scan type                                : Progressive Bits/(Pixel*Frame)                       : 0.042 Stream size                              : 1.28 GiB (91%) Title                                    : 1080P - Filmbol.org Writing library                          : x264 core 152 Encoding settings                        : cabac=1 / ref=4 / deblock=1:-1:-1 / analyse=0x3:0x133 / me=umh / subme=9 / psy=1 / psy_rd=1.00:0.15 / mixed_ref=1 / me_range=24 / chroma_me=1 / trellis=2 / 8x8dct=1 / cqm=0 / deadzone=21,11 / fast_pskip=0 / chroma_qp_offset=-3 / threads=12 / lookahead_threads=1 / sliced_threads=0 / nr=0 / decimate=1 / interlaced=0 / bluray_compat=0 / constrained_intra=0 / bframes=3 / b_pyramid=2 / b_adapt=2 / b_bias=0 / direct=3 / weightb=1 / open_gop=0 / weightp=2 / keyint=250 / keyint_min=23 / scenecut=40 / intra_refresh=0 / rc_lookahead=60 / rc=2pass / mbtree=1 / bitrate=2000 / ratetol=1.0 / qcomp=0.60 / qpmin=0 / qpmax=69 / qpstep=4 / cplxblur=20.0 / qblur=0.5 / vbv_maxrate=31250 / vbv_bufsize=31250 / nal_hrd=none / filler=0 / ip_ratio=1.40 / aq=1:1.00 Default                                  : Yes Forced                                   : No  Audio ID                                       : 2 Format                                   : AC-3 Format/Info                              : Audio Coding 3 Mode extension                           : CM (complete main) Format settings, Endianness              : Big Codec ID                                 : A_AC3 Duration                                 : 1h 31mn Bit rate mode                            : Constant Bit rate                                 : 192 Kbps Channel(s)                               : 2 channels Channel positions                        : Front: L R Sampling rate                            : 48.0 KHz Frame rate                               : 31.250 fps (1536 spf) Compression mode                         : Lossy Stream size                              : 126 MiB (9%) Title                                    : Türkçe - Filmbol.org Language                                 : Turkish Default                                  : Yes Forced                                   : No

Film Detayları


Steve Mcqueeni Bulmak

Steve Mcqueeni Bulmak

Steve Mcqueeni Bulmak


Film Fragmanı


Film Detayları

Mini 1080P İndir

Uptobox ile indir

1Fichier ile indir

1Fichier'den İndiremiyor musun? Tıklayın!


Mega ile indir

MediaFire ile indir



Konu ile Alakalı Benzer Konular
Konular Yazar Yorumlar Okunma Son Yorum
Filmin Yayınlanma Tarihi: 2010
Harry Potter ve Ölüm Yadigarları: Bölüm 1 (2010) Türkçe Dublaj BLURAY m1080P İndir BroserBros 12 891 6 saat önce
Son Yorum: Bugra6128
Filmin Yayınlanma Tarihi: 2001
Harry Potter ve Felsefe Taşı (2001) Türkçe Dublaj BLURAY m1080P İndir BroserBros 33 3,995 , Saat: 21:53
Son Yorum: berkangungor
Filmin Yayınlanma Tarihi: 2020
Larva Adası Filmi (The Larva Island Movie) - 2020 - TR+ORG - 1080P BroserBros 0 33 , Saat: 20:06
Son Yorum: BroserBros
Filmin Yayınlanma Tarihi: 2019
Uyanış (Wake Up) - 2019 - TR+ORG - 1080P BroserBros 0 34 , Saat: 19:49
Son Yorum: BroserBros
Filmin Yayınlanma Tarihi: 2019
Villains (Villains) - 2019 - TR+ORG - 1080P BroserBros 0 64 11-08-2020, Saat: 15:42
Son Yorum: BroserBros

Hızlı Menü: