Filmbol Forum Film İndir FHD - FULL HD v Şrek: Sonsuza Dek Mutlu (Shrek Forever After - Şrek 4) - 2010 - TR+ORG - FHD - x265-10Bit
Moderatör Alımları Başladı! Başvuru yapmak için tıklayın.
Filmbol Premium'da %50'e varan indirim fırsatı!
Şrek: Sonsuza Dek Mutlu (Shrek Forever After - Şrek 4) - 2010 - TR+ORG - FHD - x265-10Bit
BroserBros
Şrek: Sonsuza Dek Mutlu (Shrek Forever After - Şrek 4) - 2010 - TR+ORG - FHD - x265-10Bit
0
246
  • Derecelendirme: 0/5 - 0 oy
  • 1
  • 2
  • 3
  • 4
  • 5
Konuyu Okuyanlar:1 Ziyaretçi
Şuan Offine!
Filmin Yayınlanma Tarihi: 2010 
Şuan Offine!
BroserBros Kurucu Admin
*******
Admin

Vizyon Tarihi


28 Mayıs 2010

imdb puanı


6,3 / 180,000

süre


93 dakika

Editör Puanı


6,5 / 10

Video Format: Mkv


Matroska (.MKV)

Ses Kodek: AC3


Audio Coding 3 (AC3)

sürüm


x265-10Bit|BluRay

Boyutlar


1,42 GB



 Şrek: Sonsuza Dek Mutlu



Şrek'in canı çok sıkılmıştır ve şimdi eskisi gibi insan yiyen bir dev olma hazzı için arayışa girer. Neyse ki Rumpelstilskin ile anlaşarak onun krallığında bu ihtiyaçlarına cevap bulabilecektir. Fakat anlaştığı kişi sözünde durmaz ve Şrek aslında bir tuzağa düşmektedir...

Şrek: Sonsuza Dek Mutlu (2010) (Shrek Forever After - Şrek 4) Filmi Imdb'den 180,000 kişi tarafından oylandı ve 6,3 puan aldı. Bu film için editör puanı 6,5 olarak belirlendi. İyi Seyirler!

Teknik Detaylar

Kod :
General
Unique ID                                : 290937675683874457830255933261886034017 (0xDAE08EE33EFD60FDF62250CC9CC49061)
Complete name                            : /root/Desktop/7/Shrek.Sonsuza.Dek.Mutlu.2010.FHD.BluRay.x265.10Bit.TR.ENG.Filmbol.mkv
Format                                  : Matroska
Format version                          : Version 4 / Version 2
File size                                : 4.83 GiB
Duration                                : 1h 33mn
Overall bit rate mode                    : Variable
Overall bit rate                        : 7 414 Kbps
Movie name                              : Shrek 4: Sonsuza Dek Mutlu -  2010 | Filmbol.org
Encoded date                            : UTC 2020-05-20 11:07:05
Writing application                      : mkvmerge v8.8.0 ('Wind at my back') 64bit
Writing library                          : libebml v1.3.3 + libmatroska v1.4.4

Video
ID                                      : 1
Format                                  : HEVC
Format/Info                              : High Efficiency Video Coding
Format profile                          : Main 10@L4@Main
Codec ID                                : V_MPEGH/ISO/HEVC
Duration                                : 1h 33mn
Bit rate                                : 3 402 Kbps
Width                                    : 1 920 pixels
Height                                  : 1 080 pixels
Display aspect ratio                    : 16:9
Frame rate mode                          : Constant
Frame rate                              : 23.976 (24000/1001) fps
Color space                              : YUV
Chroma subsampling                      : 4:2:0
Bit depth                                : 10 bits
Bits/(Pixel*Frame)                      : 0.068
Stream size                              : 2.21 GiB (46%)
Title                                    : FHD - Filmbol.org
Writing library                          : x265 3.2+35-acc5d16999e2:[Windows][GCC 9.2.1][64 bit] 10bit
Encoding settings                        : cpuid=1049583 / frame-threads=5 / numa-pools=16,16 / wpp / no-pmode / no-pme / no-psnr / no-ssim / log-level=2 / input-csp=1 / input-res=1920x1080 / interlace=0 / total-frames=0 / level-idc=0 / high-tier=1 / uhd-bd=0 / ref=4 / no-allow-non-conformance / no-repeat-headers / annexb / no-aud / no-hrd / info / hash=0 / no-temporal-layers / open-gop / min-keyint=23 / keyint=250 / gop-lookahead=0 / bframes=8 / b-adapt=2 / b-pyramid / bframe-bias=0 / rc-lookahead=80 / lookahead-slices=4 / scenecut=40 / hist-scenecut=0 / radl=0 / no-splice / no-intra-refresh / ctu=64 / min-cu-size=8 / no-rect / no-amp / max-tu-size=32 / tu-inter-depth=1 / tu-intra-depth=1 / limit-tu=0 / rdoq-level=2 / dynamic-rd=0.00 / no-ssim-rd / signhide / no-tskip / nr-intra=0 / nr-inter=0 / no-constrained-intra / no-strong-intra-smoothing / max-merge=3 / limit-refs=3 / limit-modes / me=3 / subme=5 / merange=57 / temporal-mvp / no-frame-dup / no-hme / weightp / no-weightb / no-analyze-src-pics / deblock=0:0 / sao / no-sao-non-deblock / rd=4 / selective-sao=4 / no-early-skip / rskip / no-fast-intra / no-tskip-fast / no-cu-lossless / no-b-intra / no-splitrd-skip / rdpenalty=0 / psy-rd=1.30 / psy-rdoq=2.00 / no-rd-refine / no-lossless / cbqpoffs=0 / crqpoffs=0 / rc=crf / crf=19.0 / qcomp=0.60 / qpstep=4 / stats-write=0 / stats-read=0 / ipratio=1.40 / pbratio=1.30 / aq-mode=4 / aq-strength=1.10 / cutree / zone-count=0 / no-strict-cbr / qg-size=32 / no-rc-grain / qpmax=69 / qpmin=0 / no-const-vbv / sar=1 / overscan=0 / videoformat=5 / range=0 / colorprim=2 / transfer=2 / colormatrix=2 / chromaloc=0 / display-window=0 / cll=0,0 / min-luma=0 / max-luma=1023 / log2-max-poc-lsb=8 / vui-timing-info / vui-hrd-info / slices=1 / no-opt-qp-pps / no-opt-ref-list-length-pps / no-multi-pass-opt-rps / scenecut-bias=0.05 / hist-threshold=0.01 / no-opt-cu-delta-qp / no-aq-motion / no-hdr10 / no-hdr10-opt / no-dhdr10-opt / no-idr-recovery-sei / analysis-reuse-level=0 / analysis-save-reuse-level=0 / analysis-load-reuse-level=0 / scale-factor=0 / refine-intra=0 / refine-inter=0 / refine-mv=1 / refine-ctu-distortion=0 / no-limit-sao / ctu-info=0 / no-lowpass-dct / refine-analysis-type=0 / copy-pic=1 / max-ausize-factor=1.0 / no-dynamic-refine / no-single-sei / no-hevc-aq / no-svt / no-field / qp-adaptation-range=1.00 / no-scenecut-aware-qpconformance-window-offsets / right=0 / bottom=0
Default                                  : Yes
Forced                                  : No
Color range                              : Limited

Audio #1
ID                                      : 2
Format                                  : AC-3
Format/Info                              : Audio Coding 3
Mode extension                          : CM (complete main)
Format settings, Endianness              : Big
Codec ID                                : A_AC3
Duration                                : 1h 33mn
Bit rate mode                            : Constant
Bit rate                                : 640 Kbps
Channel(s)                              : 6 channels
Channel positions                        : Front: L C R, Side: L R, LFE
Sampling rate                            : 48.0 KHz
Frame rate                              : 31.250 fps (1536 spf)
Compression mode                        : Lossy
Stream size                              : 427 MiB (9%)
Title                                    : Türkçe - Filmbol.org
Default                                  : Yes
Forced                                  : Yes

Audio #2
ID                                      : 3
Format                                  : TrueHD
Codec ID                                : A_TRUEHD
Duration                                : 1h 33mn
Bit rate mode                            : Variable
Bit rate                                : 3 079 Kbps
Maximum bit rate                        : 4 854 Kbps
Channel(s)                              : 8 channels
Channel positions                        : Front: L C R, Side: L R, Back: L R, LFE
Sampling rate                            : 48.0 KHz
Frame rate                              : 1 200.000 fps (40 spf)
Compression mode                        : Lossless
Stream size                              : 2.00 GiB (42%)
Title                                    : TrueHD - İngilizce - Filmbol.org
Language                                : English
Default                                  : No
Forced                                  : No

Audio #3
ID                                      : 4
Format                                  : AC-3
Format/Info                              : Audio Coding 3
Mode extension                          : CM (complete main)
Format settings, Endianness              : Big
Codec ID                                : A_AC3
Duration                                : 1h 33mn
Bit rate mode                            : Constant
Bit rate                                : 224 Kbps
Channel(s)                              : 2 channels
Channel positions                        : Front: L R
Sampling rate                            : 48.0 KHz
Frame rate                              : 31.250 fps (1536 spf)
Compression mode                        : Lossy
Delay relative to video                  : 12ms
Stream size                              : 149 MiB (3%)
Title                                    : İngilizce - Filmbol.org
Language                                : English
Default                                  : No
Forced                                  : No

Film Detayları


 Şrek: Sonsuza Dek Mutlu

 Şrek: Sonsuza Dek Mutlu

 Şrek: Sonsuza Dek Mutlu


Film Fragmanı


Film Detayları

Uptobox ile indir

1Fichier ile indir

1Fichier'den İndiremiyor musun? Tıklayın!


Mega ile indir

Bunun için üzgünüz ancak, bu linke sadece premium üyeler erişebilir.

Filmbol Cloud



Konu ile Alakalı Benzer Konular
Konular Yazar Yorumlar Okunma Son Yorum
Filmin Yayınlanma Tarihi: 2020
Lanetli Çocuk 2 (Brahms: The Boy II) - 2020 - TR+ORG - FHD - x265 BroserBros 0 54 25-07-2020, Saat: 20:08
Son Yorum: BroserBros
Filmin Yayınlanma Tarihi: 2019
Hellboy (Hellboy) - 2019 - TR+ORG - FHD - x265 BroserBros 0 107 03-07-2020, Saat: 12:39
Son Yorum: BroserBros
Filmin Yayınlanma Tarihi: 2020
Ritmi Hisset (Feel the Beat) - 2020 - TR+ORG - FHD - x265-10Bit BroserBros 0 168 26-06-2020, Saat: 20:20
Son Yorum: BroserBros
Filmin Yayınlanma Tarihi: 2019
Zombi Ülkesi: Çift Dokunuş (Zombieland: Double Tap) - 2019 - TR+ORG - FHD - x265-10Bit BroserBros 0 145 25-06-2020, Saat: 20:53
Son Yorum: BroserBros
Filmin Yayınlanma Tarihi: 2010
Toprak Altında (Buried) - 2010 - TR+ORG - FHD - x265-10Bit BroserBros 0 88 25-06-2020, Saat: 16:20
Son Yorum: BroserBros

Hızlı Menü: