Filmbol Forum Film İndir 3D v Şrek: Sonsuza Dek Mutlu (Shrek Forever After - Şrek 4) - 2010 - TR+ORG - 3D
Moderatör Alımları Başladı! Başvuru yapmak için tıklayın.
Filmbol Premium'da %50'e varan indirim fırsatı!
Şrek: Sonsuza Dek Mutlu (Shrek Forever After - Şrek 4) - 2010 - TR+ORG - 3D
BroserBros
Şrek: Sonsuza Dek Mutlu (Shrek Forever After - Şrek 4) - 2010 - TR+ORG - 3D
0
340
  • Derecelendirme: 0/5 - 0 oy
  • 1
  • 2
  • 3
  • 4
  • 5
Konuyu Okuyanlar:1 Ziyaretçi
Şuan Offine!
Filmin Yayınlanma Tarihi: 2010 
Şuan Offine!
BroserBros Kurucu Admin
*******
Admin

Vizyon Tarihi


28 Mayıs 2010

imdb puanı


6,3 / 180,000

süre


93 dakika

Editör Puanı


6,5 / 10

Video Format: Mkv


Matroska (.MKV)

Ses Kodek: AC3


Audio Coding 3 (AC3)

sürüm


x264 | 3D | BluRay

Boyutlar


1,79 GB



 Şrek: Sonsuza Dek Mutlu



Şrek'in canı çok sıkılmıştır ve şimdi eskisi gibi insan yiyen bir dev olma hazzı için arayışa girer. Neyse ki Rumpelstilskin ile anlaşarak onun krallığında bu ihtiyaçlarına cevap bulabilecektir. Fakat anlaştığı kişi sözünde durmaz ve Şrek aslında bir tuzağa düşmektedir...

Şrek: Sonsuza Dek Mutlu (2010) (Shrek Forever After - Şrek 4) Filmi Imdb'den 180,000 kişi tarafından oylandı ve 6,3 puan aldı. Bu film için editör puanı 6,5 olarak belirlendi. İyi Seyirler!

Teknik Detaylar

Kod :
General
Unique ID                                : 253611260049155180077081716004761243245 (0xBECBC082D36D609DA2A0308FC0D60E6D)
Complete name                            : /root/Desktop/7/Shrek.Sonsuza.Dek.Mutlu.2010.3D.HSBS.BluRay.x264.TR.ENG.Filmbol.mkv
Format                                  : Matroska
Format version                          : Version 4 / Version 2
File size                                : 1.79 GiB
Duration                                : 1h 33mn
Overall bit rate                        : 2 756 Kbps
Movie name                              : Shrek 4: Sonsuza Dek Mutlu -  2010 | Filmbol.org
Encoded date                            : UTC 2020-05-20 11:05:26
Writing application                      : mkvmerge v8.8.0 ('Wind at my back') 64bit
Writing library                          : libebml v1.3.3 + libmatroska v1.4.4

Video
ID                                      : 1
Format                                  : AVC
Format/Info                              : Advanced Video Codec
Format profile                          : High@L4.1
Format settings, CABAC                  : Yes
Format settings, ReFrames                : 4 frames
Codec ID                                : V_MPEG4/ISO/AVC
Duration                                : 1h 33mn
Bit rate                                : 2 050 Kbps
Width                                    : 1 920 pixels
Height                                  : 816 pixels
Display aspect ratio                    : 2.35:1
Frame rate mode                          : Constant
Frame rate                              : 23.976 (24000/1001) fps
Color space                              : YUV
Chroma subsampling                      : 4:2:0
Bit depth                                : 8 bits
Scan type                                : Progressive
Bits/(Pixel*Frame)                      : 0.055
Stream size                              : 1.33 GiB (74%)
Title                                    : 3D - Filmbol.org
Writing library                          : x264 core 148
Encoding settings                        : cabac=1 / ref=4 / deblock=1:-1:-1 / analyse=0x3:0x133 / me=umh / subme=9 / psy=1 / psy_rd=1.00:0.15 / mixed_ref=1 / me_range=24 / chroma_me=1 / trellis=2 / 8x8dct=1 / cqm=0 / deadzone=21,11 / fast_pskip=0 / chroma_qp_offset=-3 / threads=12 / lookahead_threads=1 / sliced_threads=0 / nr=0 / decimate=1 / interlaced=0 / bluray_compat=0 / constrained_intra=0 / bframes=3 / b_pyramid=2 / b_adapt=2 / b_bias=0 / direct=3 / weightb=1 / open_gop=0 / weightp=2 / keyint=250 / keyint_min=23 / scenecut=40 / intra_refresh=0 / rc_lookahead=60 / rc=2pass / mbtree=1 / bitrate=2050 / ratetol=1.0 / qcomp=0.60 / qpmin=0 / qpmax=69 / qpstep=4 / cplxblur=20.0 / qblur=0.5 / vbv_maxrate=31250 / vbv_bufsize=31250 / nal_hrd=none / filler=0 / ip_ratio=1.40 / aq=1:1.00
Default                                  : Yes
Forced                                  : No

Audio #1
ID                                      : 2
Format                                  : AC-3
Format/Info                              : Audio Coding 3
Mode extension                          : CM (complete main)
Format settings, Endianness              : Big
Codec ID                                : A_AC3
Duration                                : 1h 33mn
Bit rate mode                            : Constant
Bit rate                                : 640 Kbps
Channel(s)                              : 6 channels
Channel positions                        : Front: L C R, Side: L R, LFE
Sampling rate                            : 48.0 KHz
Frame rate                              : 31.250 fps (1536 spf)
Compression mode                        : Lossy
Stream size                              : 427 MiB (23%)
Title                                    : Türkçe - Filmbol.org
Default                                  : Yes
Forced                                  : Yes

Audio #2
ID                                      : 3
Format                                  : AAC
Format/Info                              : Advanced Audio Codec
Format profile                          : HE-AAC / LC
Codec ID                                : A_AAC
Duration                                : 1h 33mn
Bit rate                                : 64.0 Kbps
Channel(s)                              : 2 channels
Channel positions                        : Front: L R
Sampling rate                            : 48.0 KHz / 24.0 KHz
Frame rate                              : 23.438 fps (1024 spf)
Compression mode                        : Lossy
Stream size                              : 42.7 MiB (2%)
Title                                    : İngilizce - Filmbol.org
Default                                  : No
Forced                                  : No

Film Detayları


 Şrek: Sonsuza Dek Mutlu

 Şrek: Sonsuza Dek Mutlu

 Şrek: Sonsuza Dek Mutlu


Film Fragmanı


Film Detayları

Uptobox ile indir

1Fichier ile indir

1Fichier'den İndiremiyor musun? Tıklayın!


Mega ile indir

Bunun için üzgünüz ancak, bu linke sadece premium üyeler erişebilir.

Filmbol Cloud



Konu ile Alakalı Benzer Konular
Konular Yazar Yorumlar Okunma Son Yorum
Filmin Yayınlanma Tarihi: 2010
Çılgın Hırsız (Despicable Me) - 2010 - TR+ORG - 3D BroserBros 0 112 11-06-2020, Saat: 20:28
Son Yorum: BroserBros
Filmin Yayınlanma Tarihi: 2007
Shrek the Third (Shrek 3 - Şrek 3) - 2007 - TR+ORG - 3D BroserBros 0 228 23-05-2020, Saat: 13:12
Son Yorum: BroserBros
Filmin Yayınlanma Tarihi: 2004
Shrek 2 (Şrek 2) - 2004 - TR+ORG - 3D BroserBros 0 113 23-05-2020, Saat: 12:54
Son Yorum: BroserBros
Filmin Yayınlanma Tarihi: 2010
Baykuş Krallığı Efsanesi (Legend of the Guardians: The Owls of Ga'Hoole) - 2010 - TR+ORG - 3D BroserBros 0 215 18-05-2020, Saat: 22:59
Son Yorum: BroserBros

Hızlı Menü: