Hoşgeldin, Ziyaretçi: Giriş Yap Üye Ol


stats
Adblock'u kapattıysanız tıklayın.
Hoşgeldiniz!
Filmbol'u tercih ettiğiniz için teşekkürler, ancak ablock kullanarak devam edemezsiniz.
Merak etmeyin. Heryerden ardı ardına çıkan reklamlar görmeyeceksiniz :)

Sadece site içi 1 reklam göreceksin ve bu site gezintini etkilemeyecek.
Konuyu Oyla:
  • Derecelendirme: 0/5 - 0 oy
  • 1
  • 2
  • 3
  • 4
  • 5
Sonra (The Aftermath) Türkçe Dublaj Brrip Xvid İndir
#1
Filmin Yayınlanma Tarihi: 2019 

indirme türü


Bulut + Premium

vizyon tarihi


01 Mart 2019

Boyutlar


1,23

diller


[TR]

altyazilar


KISIM [Eklenebilir]

Video Format: Avi


Audio Video Interleave (.AVI)

Video Detay


MPEG-4, 1498 Kbps, 1,14GB

imdb puanı


6,3 / 10,0 / 6,000

süre


108 dakika

Ses Kodek: MP3


MPEG-1 Audio Layer III (MP3)

Ses Detay


128 Kbps, 2 Kanal, 100Mb

Editör Puanı


6,0

Genislik Yukseklik


720-388

sürüm


h263 | Brrip-Xvid



Film Detayları

2. Dünya savaşı sonrası, İngiliz albay ve eşi birlikte kendilerine yeni bir hayat kurmak için Hamburg'a taşınırlar ancak bölgedeki alman halkı tarafından tepki alırlar.

Sonra (yada Savaştan Sonra) (The Aftermath) Filmi Imdb'den 6,000 kişi tarafından oylandı ve 6,3 puan aldı. Bu film için editör puanı 6,0 olarak belirlendi. İyi Seyirler!


Teknik Detaylar


Kod:
General
Complete name                            : Sonra.2019.BRRip.XviD.TR.Filmbol.avi
Format                                   : AVI
Format/Info                              : Audio Video Interleave
File size                                : 1.24 GiB
Duration                                 : 1h 48mn
Overall bit rate                         : 1 639 Kbps

Video
ID                                       : 0
Format                                   : MPEG-4 Visual
Format profile                           : Simple@L5
Format settings, BVOP                    : No
Format settings, QPel                    : No
Format settings, GMC                     : No warppoints
Format settings, Matrix                  : Default (H.263)
Codec ID                                 : XVID
Codec ID/Hint                            : XviD
Duration                                 : 1h 48mn
Bit rate                                 : 1 498 Kbps
Width                                    : 720 pixels
Height                                   : 388 pixels
Display aspect ratio                     : 1.85:1
Frame rate                               : 23.976 fps
Color space                              : YUV
Chroma subsampling                       : 4:2:0
Bit depth                                : 8 bits
Scan type                                : Progressive
Compression mode                         : Lossy
Bits/(Pixel*Frame)                       : 0.224
Stream size                              : 1.14 GiB (91%)
Writing library                          : Lavc58.35.100

Audio
ID                                       : 1
Format                                   : MPEG Audio
Format version                           : Version 1
Format profile                           : Layer 3
Mode                                     : Joint stereo
Mode extension                           : MS Stereo
Codec ID                                 : 55
Codec ID/Hint                            : MP3
Duration                                 : 1h 48mn
Bit rate mode                            : Constant
Bit rate                                 : 128 Kbps
Channel(s)                               : 2 channels
Sampling rate                            : 48.0 KHz
Compression mode                         : Lossy
Stream size                              : 99.5 MiB (8%)
Alignment                                : Aligned on interleaves
Interleave, duration                     : 24 ms (0.58 video frame)



Film Detayları


Sonra 2019 Turkce Dublaj indir

Sonra 2019 Turkce Dublaj indir

Sonra 2019 Turkce Dublaj indir

Sonra 2019 Turkce Dublaj indir

Sonra 2019 Turkce Dublaj indir



Film Fragmanı


Film Detayları

Brrip İndir


Turbobit İle İndir

Uptobox ile indir

Dosya Co ile indir

Dosya Upload ile indir

Mega ile indir

Filmbol'da aşağıdaki linkler sadece üyelere sunulur. Ayrıca bu linklerde link kısaltma servisleri kullanılmaz, linke tek tık ile reklamsız erişirsiniz. Konu'ya yorum yapın ve sayfayı yenileyin. Reklamsız linkler (en az 3 en fazla 5 link) açılmış olacaktır. Not: Filmbol'a üye olmak tamamen ücretsizdir, en az 3 link kuralı 01.07.2019 tarihinden sonraki paylaşımlar için geçerlidir. Ancak çoğu film için en az bir premium link her zaman bulunur.

Mega

Dosyaco

Dosyaupload

Mediafire

Google Drive
 
Cevapla
  


Konu ile Alakalı Benzer Konular
Konular Yazar Yorumlar Okunma Son Yorum
Filmin Yayınlanma Tarihi: 2015 Hyena Road Türkçe Dublaj Brrip-Xvid İndir BroserBros 0 864 28-02-2017, Saat: 22:34
Son Yorum: BroserBros
Filmin Yayınlanma Tarihi: 2016 Bana Kahraman Olduğumu Söyledi (Long Halftime Walk) Türkçe Dublaj Brrip-Xvid İndir BroserBros 0 790 24-02-2017, Saat: 20:58
Son Yorum: BroserBros
Filmin Yayınlanma Tarihi: 2015 Ölüm Emri (Eye In The Sky) Türkçe Dublaj Brrip-Xvid İndir BroserBros 0 676 21-02-2017, Saat: 21:59
Son Yorum: BroserBros
Filmin Yayınlanma Tarihi: 2016 Jarhead 3: Kuşatma (Jarhead 3: The Siege) Türkçe Dublaj Brrip-Xvid İndir BroserBros 0 651 16-02-2017, Saat: 16:25
Son Yorum: BroserBros
Filmin Yayınlanma Tarihi: 2015 Rock The Kasbah Türkçe Dublaj Brrip-Xvid İndir BroserBros 0 595 16-01-2017, Saat: 18:36
Son Yorum: BroserBros

Hızlı Menü:


Şu anda bu konuyu okuyanlar: 2 Ziyaretçi