Hoşgeldin, Ziyaretçi: Giriş Yap Üye Ol


stats
Adblock'u kapattıysanız tıklayın.
Hoşgeldiniz!
Filmbol'u tercih ettiğiniz için teşekkürler, ancak ablock kullanarak devam edemezsiniz.
Merak etmeyin. Heryerden ardı ardına çıkan reklamlar görmeyeceksiniz :)

Sadece site içi 1 reklam göreceksin ve bu site gezintini etkilemeyecek.
Konuyu Oyla:
  • Derecelendirme: 0/5 - 0 oy
  • 1
  • 2
  • 3
  • 4
  • 5
Sonra (The Aftermath) Türkçe Dublaj BLURAY m1080P İndir
#1
Filmin Yayınlanma Tarihi: 2019 

indirme türü


Bulut + Premium

vizyon tarihi


01 Mart 2019

Boyutlar


1,92

diller


[TR]

altyazilar


KISIM [Eklenebilir]

Video Format: Mkv


Matroska (.MKV)

Video Detay


MPEG-4, 2150 Kbps, 1,63GB

imdb puanı


6,3 / 10,0 / 6,000

süre


108 dakika

Ses Kodek: AC3


Audio Coding 3 (AC3)

Ses Detay


384 Kbps, 6 Kanal, 298Mb

Editör Puanı


6,0

Genislik Yukseklik


1920-1024

sürüm


x264 | m1080P



Film Detayları

2. Dünya savaşı sonrası, İngiliz albay ve eşi birlikte kendilerine yeni bir hayat kurmak için Hamburg'a taşınırlar ancak bölgedeki alman halkı tarafından tepki alırlar.

Sonra (yada Savaştan Sonra) (The Aftermath) Filmi Imdb'den 6,000 kişi tarafından oylandı ve 6,3 puan aldı. Bu film için editör puanı 6,0 olarak belirlendi. İyi Seyirler!


Teknik Detaylar


Kod:
General
Complete name                            : Sonra.2019.m1080p.BLURAY.x264.TR.Filmbol.mkv
Format                                   : Matroska
Format version                           : Version 4 / Version 2
File size                                : 1.92 GiB
Duration                                 : 1h 48mn
Overall bit rate                         : 2 535 Kbps
Movie name                               : Sonra (2019) - Filmbol.org
Encoded date                             : UTC 2019-07-12 13:57:32
Writing application                      : mkvmerge v35.0.0 ('All The Love In The World') 64-bit
Writing library                          : libebml v1.3.9 + libmatroska v1.5.2

Video
ID                                       : 1
Format                                   : AVC
Format/Info                              : Advanced Video Codec
Format profile                           : High@L4.1
Format settings, CABAC                   : Yes
Format settings, ReFrames                : 4 frames
Codec ID                                 : V_MPEG4/ISO/AVC
Duration                                 : 1h 48mn
Bit rate                                 : 2 150 Kbps
Width                                    : 1 920 pixels
Height                                   : 1 024 pixels
Display aspect ratio                     : 1.85:1
Frame rate mode                          : Constant
Frame rate                               : 23.976 (24000/1001) fps
Color space                              : YUV
Chroma subsampling                       : 4:2:0
Bit depth                                : 8 bits
Scan type                                : Progressive
Bits/(Pixel*Frame)                       : 0.046
Stream size                              : 1.63 GiB (85%)
Title                                    : m1080P - Filmbol.org
Writing library                          : x264 core 157
Default                                  : Yes
Forced                                   : No

Audio
ID                                       : 2
Format                                   : AC-3
Format/Info                              : Audio Coding 3
Mode extension                           : CM (complete main)
Format settings, Endianness              : Big
Codec ID                                 : A_AC3
Duration                                 : 1h 48mn
Bit rate mode                            : Constant
Bit rate                                 : 384 Kbps
Channel(s)                               : 6 channels
Channel positions                        : Front: L C R, Side: L R, LFE
Sampling rate                            : 48.0 KHz
Frame rate                               : 31.250 fps (1536 spf)
Compression mode                         : Lossy
Stream size                              : 298 MiB (15%)
Title                                    : Türkçe - Filmbol.org
Language                                 : Turkish
Default                                  : Yes
Forced                                   : No

Text
ID                                       : 3
Format                                   : UTF-8
Codec ID                                 : S_TEXT/UTF8
Codec ID/Info                            : UTF-8 Plain Text
Duration                                 : 1h 45mn
Bit rate                                 : 2 bps
Count of elements                        : 75
Stream size                              : 1.86 KiB (0%)
Title                                    : KISIM
Language                                 : Turkish
Default                                  : Yes
Forced                                   : Yes



Film Detayları


Sonra 2019 Turkce Dublaj indir

Sonra 2019 Turkce Dublaj indir

Sonra 2019 Turkce Dublaj indir

Sonra 2019 Turkce Dublaj indir

Sonra 2019 Turkce Dublaj indir



Film Fragmanı


Film Detayları

Mini 1080P İndir


Turbobit İle İndir

Uptobox ile indir

Dosya Co ile indir

Dosya Upload ile indir

Mega ile indir

Filmbol'da aşağıdaki linkler sadece üyelere sunulur. Ayrıca bu linklerde link kısaltma servisleri kullanılmaz, linke tek tık ile reklamsız erişirsiniz. Konu'ya yorum yapın ve sayfayı yenileyin. Reklamsız linkler (en az 3 en fazla 5 link) açılmış olacaktır. Not: Filmbol'a üye olmak tamamen ücretsizdir, en az 3 link kuralı 01.07.2019 tarihinden sonraki paylaşımlar için geçerlidir. Ancak çoğu film için en az bir premium link her zaman bulunur.

Mega

Dosyaco

Dosyaupload

Mediafire

Google Drive
 
Cevapla
  


Hızlı Menü:


Şu anda bu konuyu okuyanlar: 2 Ziyaretçi