Hoşgeldin, Ziyaretçi: Giriş Yap Üye Ol


stats
Adblock'u kapattıysanız tıklayın.
Hoşgeldiniz!
Filmbol'u tercih ettiğiniz için teşekkürler, ancak ablock kullanarak devam edemezsiniz.
Merak etmeyin. Heryerden ardı ardına çıkan reklamlar görmeyeceksiniz :)

Sadece site içi 1 reklam göreceksin ve bu site gezintini etkilemeyecek.
Konuyu Oyla:
  • Derecelendirme: 0/5 - 0 oy
  • 1
  • 2
  • 3
  • 4
  • 5
Title: Son Konser (Take to 10) Türkçe Dublaj m1080P İndir
Gösterim Stili
#1
Filmin Yayınlanma Tarihi: 2016 

indirme türü


Bulut + Premium

vizyon tarihi


20 Ocak 2017

Boyutlar


1,40GB

diller


[TR]

altyazilar


Yok [Eklenebilir]

Video Format: Mkv


Matroska (.MKV)

Video Detay


MPEG-4, 2071 Kbps, 1,16 GB

imdb puanı


5,1 / 10,0 / 1,000

süre


80 dakika

Ses Kodek: AC3


Audio Coding 3 (AC3)

Ses Detay


384 Kbps, 6 Kanal, 220 Mb

rarsifresi


filmbol.org

Editör Puanı


5,0

Genislik Yukseklik


1920x800

sürüm


x264 | -NFRip 1080P



Film Detayları

İki arkadaşın çok önemli bir konsere gitmek için geçtiği uzun, komedi dolu macerasına hazır olun.


Teknik Detaylar
Kod:
General
Format                                   : Matroska
Format version                           : Version 4 / Version 2
File size                                : 1.40 GiB
Duration                                 : 1h 20mn
Overall bit rate                         : 2 505 Kbps
Movie name                               : Take the 10 - Filmbol.org

Video
ID                                       : 1
Format                                   : AVC
Format/Info                              : Advanced Video Codec
Format profile                           : Main@L4.0
Format settings, CABAC                   : Yes
Format settings, ReFrames                : 2 frames
Format settings, GOP                     : N=1
Codec ID                                 : V_MPEG4/ISO/AVC
Duration                                 : 1h 20mn
Bit rate                                 : 2 071 Kbps
Width                                    : 1 920 pixels
Height                                   : 800 pixels
Display aspect ratio                     : 2.40:1
Frame rate mode                          : Constant
Frame rate                               : 23.976 fps
Color space                              : YUV
Chroma subsampling                       : 4:2:0
Bit depth                                : 8 bits
Scan type                                : Progressive
Bits/(Pixel*Frame)                       : 0.056
Stream size                              : 1.16 GiB (83%)
Title                                    : 1080P - Filmbol.org
Default                                  : Yes
Forced                                   : No

Audio
ID                                       : 2
Format                                   : AC-3
Format/Info                              : Audio Coding 3
Mode extension                           : CM (complete main)
Format settings, Endianness              : Big
Codec ID                                 : A_AC3
Duration                                 : 1h 20mn
Bit rate mode                            : Constant
Bit rate                                 : 384 Kbps
Channel(s)                               : 6 channels
Channel positions                        : Front: L C R, Side: L R, LFE
Sampling rate                            : 48.0 KHz
Bit depth                                : 16 bits
Compression mode                         : Lossy
Stream size                              : 220 MiB (15%)
Title                                    : Türkçe - Filmbol.org
Language                                 : Turkish
Default                                  : Yes
Forced                                   : No




Film Detayları


Son Konser

Son Konser

Son Konser

Son Konser

Son Konser


Film Fragmanı


Film Detayları

Mini 1080P İndir


Mega linki şuan da gizli. Kullanıma açmak için konuya yorum yapın ve ardından sayfayı yenileyin. Ayrıca bu linki açtığınızda reklamsız olarak erişebileceğinizi unutmayın.

Mega


Uptobox ile indir

CloudRu ile indir

 
Cevapla
  


Hızlı Menü:


Browsing: 1 Ziyaretçi