Filmbol Forum Film İndir BRRip XviD v Son Darbe (Final Score) Türkçe Dublaj Brrip Xvid İndir
Mega linklerinin şikayet edilmemesi için global erişime kapatıp sadece yorum yapanlara açıyoruz. Bu linkleri gizleme işlemini mecburen yapıyoruz ve yorum yapmanızın siteye değil size faydası vardır. Teşekürler yazmayı çok görüp, Random/Spam mesajlar atarak Mega linklerini açmaya çalışan kullanıcılara önce süresiz ban, devam ederse IP ban atacağız.
Filmbol'da moderatör olmak ister misiniz? Bizimle iletişime geçmek için tıklayın!
Son Darbe (Final Score) Türkçe Dublaj Brrip Xvid İndir
BroserBros
Son Darbe (Final Score) Türkçe Dublaj Brrip Xvid İndir
0
357
  • Derecelendirme: 0/5 - 0 oy
  • 1
  • 2
  • 3
  • 4
  • 5
Konuyu Okuyanlar:1 Ziyaretçi
Şuan Online!
Filmin Yayınlanma Tarihi: 2018 
WWW
Şuan Online!
BroserBros Kurucu Admin
*******
Admin










Son Darbe



Teknik Detaylar


Kod :
General
Complete name                            : Son.Darbe.2018.BRRip.XviD.TR.Filmbol.avi
Format                                   : AVI
Format/Info                              : Audio Video Interleave
File size                                : 1.25 GiB
Duration                                 : 1h 44mn
Overall bit rate                         : 1 712 Kbps

Video
ID                                       : 0
Format                                   : MPEG-4 Visual
Format profile                           : [email protected]
Format settings, BVOP                    : No
Format settings, QPel                    : No
Format settings, GMC                     : No warppoints
Format settings, Matrix                  : Default (H.263)
Codec ID                                 : XVID
Codec ID/Hint                            : XviD
Duration                                 : 1h 44mn
Bit rate                                 : 1 571 Kbps
Width                                    : 720 pixels
Height                                   : 302 pixels
Display aspect ratio                     : 2.40:1
Frame rate                               : 23.976 fps
Color space                              : YUV
Chroma subsampling                       : 4:2:0
Bit depth                                : 8 bits
Scan type                                : Progressive
Compression mode                         : Lossy
Bits/(Pixel*Frame)                       : 0.301
Stream size                              : 1.15 GiB (92%)
Writing library                          : Lavc58.18.100

Audio
ID                                       : 1
Format                                   : MPEG Audio
Format version                           : Version 1
Format profile                           : Layer 3
Mode                                     : Joint stereo
Mode extension                           : MS Stereo
Codec ID                                 : 55
Codec ID/Hint                            : MP3
Duration                                 : 1h 44mn
Bit rate mode                            : Constant
Bit rate                                 : 128 Kbps
Channel(s)                               : 2 channels
Sampling rate                            : 48.0 KHz
Compression mode                         : Lossy
Stream size                              : 95.8 MiB (7%)
Alignment                                : Aligned on interleaves
Interleave, duration                     : 24 ms (0.58 video frame)

Film Detayları


Son Darbe

Son Darbe

Son Darbe


Film Fragmanı


Film Detayları

Brrip İndir



Uptobox ile indir

1Fichier ile indir

1Fichier'den İndiremiyor musun? Tıklayın!


Mega linki şuan da gizli. Kullanıma açmak için konuya yorum yapın ve ardından sayfayı yenileyin.

Mega


MediaFire ile indir



Konu ile Alakalı Benzer Konular
Konular Yazar Yorumlar Okunma Son Yorum
Filmin Yayınlanma Tarihi: 2002
Akıl Oyunları (A Beautiful Mind) - 2001 - TR - BRRip XviD | tt0268978 BroserBros 2 243 4 saat önce
Son Yorum: Furkan61
  Her Zaman Şeytan (The Devil All the Time) - 2020 - TR - BRRip XviD | tt7395114 TheSteeL 1 43 4 saat önce
Son Yorum: Furkan61
Filmin Yayınlanma Tarihi: 2020
Baba Aranıyor (Se busca papá) - 2020 - TR - BRRip XviD | tt12721188 TheSteeL 0 32 , Saat: 21:12
Son Yorum: TheSteeL
Filmin Yayınlanma Tarihi: 1999
Yeşil Yol (The Green Mile) - 1999 - TR - BRRip XviD | tt0120689 BroserBros 2 250 , Saat: 15:54
Son Yorum: Furkan61
Filmin Yayınlanma Tarihi: 2019
Beyaz Kentin Sessizliği (El silencio de la ciudad blanca) - 2019 - TR - BRRip XviD | tt8393332 BroserBros 1 249 , Saat: 15:38
Son Yorum: BroserBros

Hızlı Menü: