Hoşgeldin, Ziyaretçi: Giriş Yap Üye Ol


stats
Adblock'u kapattıysanız tıklayın.
Hoşgeldiniz!
Filmbol'u tercih ettiğiniz için teşekkürler, ancak ablock kullanarak devam edemezsiniz.
Merak etmeyin. Heryerden ardı ardına çıkan reklamlar görmeyeceksiniz :)

Sadece site içi 1 reklam göreceksin ve bu site gezintini etkilemeyecek.
Konuyu Oyla:
  • Derecelendirme: 0/5 - 0 oy
  • 1
  • 2
  • 3
  • 4
  • 5
Soldado (Sicario: Day of the Saldoda) Türkçe Dublaj Brrip Xvid İndir
#1
Filmin Yayınlanma Tarihi: 2018 

indirme türü


Bulut + Premium

vizyon tarihi


29 Haziran 2018

Boyutlar


1,49

diller


[TR]

altyazilar


Yok [Eklenebilir]

Video Format: Avi


Audio Video Interleave (.AVI)

Video Detay


MPEG-4, 1597 Kbps, 1,37GB

imdb puanı


7,1 / 10,0 / 101,000

süre


122 dakika

Ses Kodek: MP3


MPEG-1 Audio Layer III (MP3)

Ses Detay


128 Kbps, 2 Kanal, 112Mb

Editör Puanı


7,3

Genislik Yukseklik


720-300

sürüm


h263 | Brrip Xvid





Soldado


Film Detayları

Sicario 2: Soldado"da, Meksika ve Amerika sınırındaki devlet-kartel savaşı konu ediliyor. Uyuşturucu kartelleri, teröristleri ABD sınırından kaçak yollarla geçirmeye başlayınca, federal ajan Matt Graver, gizemli Alejandro’yla iletişime geçer. Ailesi bir kartel patronu tarafından öldürülen Alejandro’nun görevi, en alçakça yollarla savaşı kızıştırmaktır. Alejandro, savaşı alevlendirmek için kartel patronunun kızını kaçırır. Gizli plan ortaya çıktığında ise Graver kızın işinin bitirilmesini emreder. Sivil zayiat olarak görülmeye başlanan genç kızın kaderi, ne için savaştığını sorgulayan Alejandro'nun elinde olacaktır... 

Denis Villeneuve imzalı 2015 yapımı “Sicario” filminin devam halkası olan yapımın yönetmen koltuğunda “ACAB - All Cops Are Bastards” ve “Suburra” filmleriyle tanınan İtalyan yönetmen Stefano Sollima oturuyor. Başrollerine Oscar adayı Josh Brolin ve Oscar ödüllü Benicio Del Toro’yu yerleştiren filmin oyuncu kadrosunda ayrıca "Transformers 5: Son Şövalye"nin yıldızı Isabela Moner, Matthew Modine, Catherine Keener, Manuel Garcia-Rulfo, Jeffrey Donovan, Christopher Heyerdahl ve Ian Bohen de yer alıyor. Dariusz Wolski’nin görüntü yönetmenliğini üstlendiği filmin müzikleri ise Hildur Guðnadóttir’e ait.
 
Soldado Sicario: Day of the Soldado) Filmi Imdb'den 101,000 kişi tarafından oylandı ve 7,1 puan aldı. Bu film için editör puanı 7,3 olarak belirlendi. İyi Seyirler!


Teknik Detaylar



Kod:
General
Complete name                            : Soldado.2018.BRRip.XviD.TR.Filmbol.avi
Format                                   : AVI
Format/Info                              : Audio Video Interleave
File size                                : 1.49 GiB
Duration                                 : 2h 2mn
Overall bit rate                         : 1 738 Kbps

Video
ID                                       : 0
Format                                   : MPEG-4 Visual
Format profile                           : Simple@L5
Format settings, BVOP                    : No
Format settings, QPel                    : No
Format settings, GMC                     : No warppoints
Format settings, Matrix                  : Default (H.263)
Codec ID                                 : XVID
Codec ID/Hint                            : XviD
Duration                                 : 2h 2mn
Bit rate                                 : 1 597 Kbps
Width                                    : 720 pixels
Height                                   : 300 pixels
Display aspect ratio                     : 2.40:1
Frame rate                               : 23.976 fps
Color space                              : YUV
Chroma subsampling                       : 4:2:0
Bit depth                                : 8 bits
Scan type                                : Progressive
Compression mode                         : Lossy
Bits/(Pixel*Frame)                       : 0.308
Stream size                              : 1.37 GiB (92%)
Writing library                          : Lavc58.35.100

Audio
ID                                       : 1
Format                                   : MPEG Audio
Format version                           : Version 1
Format profile                           : Layer 3
Mode                                     : Joint stereo
Mode extension                           : MS Stereo
Codec ID                                 : 55
Codec ID/Hint                            : MP3
Duration                                 : 2h 2mn
Bit rate mode                            : Constant
Bit rate                                 : 128 Kbps
Channel(s)                               : 2 channels
Sampling rate                            : 48.0 KHz
Compression mode                         : Lossy
Stream size                              : 112 MiB (7%)
Alignment                                : Aligned on interleaves
Interleave, duration                     : 24 ms (0.58 video frame)


Film Detayları


Soldado


Film Fragmanı


Film Detayları

Brrip İndir


MixDrop ile indir

Tusfiles ile indir

LetsUpload ile indir

Filmbol'da aşağıdaki linkler sadece üyelere sunulur. Ayrıca bu linklerde link kısaltma servisleri kullanılmaz, linke tek tık ile reklamsız erişirsiniz. Konu'ya yorum yapın ve sayfayı yenileyin. Reklamsız linkler (en az 3 en fazla 5 link) açılmış olacaktır. Not: Filmbol'a üye olmak tamamen ücretsizdir, en az 3 link kuralı 01.07.2019 tarihinden sonraki paylaşımlar için geçerlidir. Ancak çoğu film için en az bir premium link her zaman bulunur.

Mega

Dosyaco

Dosyaupload

Mediafire

Google Drive
 
Cevapla
#2
çok yahşi filimdir ha
 
Cevapla
  


Konu ile Alakalı Benzer Konular
Konular Yazar Yorumlar Okunma Son Yorum
Filmin Yayınlanma Tarihi: 2016 Sonsuzluk Teorisi (The Man Who Knew Infinity) Türkçe Dublaj Brrip-Xvid İndir BroserBros 1 1,534 14-09-2019, Saat: 21:27
Son Yorum: BroserBros
Filmin Yayınlanma Tarihi: 2018 Merak Etme, Fazla Uzaklaşamaz (2018) Türkçe Dublaj Brrip Xvid İndir BroserBros 0 36 30-08-2019, Saat: 22:49
Son Yorum: BroserBros
Filmin Yayınlanma Tarihi: 2018 Bohemian Rhapsody (2018) Türkçe Dublaj Brrip Xvid İndir BroserBros 1 49 24-08-2019, Saat: 19:44
Son Yorum: sifiriki02
Filmin Yayınlanma Tarihi: 2019 Gizli Takıntı (Secret Obsession) Türkçe Dublaj Brrip Xvid İndir BroserBros 1 151 22-08-2019, Saat: 16:13
Son Yorum: algül
Filmin Yayınlanma Tarihi: 2018 Dul Kadınlar (Widows) Türkçe Dublaj Brrip Xvid İndir BroserBros 0 55 20-08-2019, Saat: 19:46
Son Yorum: BroserBros

Hızlı Menü:


Şu anda bu konuyu okuyanlar: 1 Ziyaretçi