Filmbol Forum Film İndir 720P v Soldado (Sicario: Day of the Saldoda) Türkçe Dublaj BLURAY m720P İndir
Filmbol'da moderatör olmak ister misiniz? Bizimle iletişime geçmek için tıklayın!
Soldado (Sicario: Day of the Saldoda) Türkçe Dublaj BLURAY m720P İndir
BroserBros
Soldado (Sicario: Day of the Saldoda) Türkçe Dublaj BLURAY m720P İndir
4
595
  • Derecelendirme: 0/5 - 0 oy
  • 1
  • 2
  • 3
  • 4
  • 5
Konuyu Okuyanlar:1 Ziyaretçi
Şuan Online!
Filmin Yayınlanma Tarihi: 2018 
Şuan Online!
BroserBros Kurucu Admin
*******
Admin

indirme türü


Bulut + Premium

Vizyon Tarihi


29 Haziran 2018

Boyutlar


1,06

diller


[TR]

altyazilar


Yok [Eklenebilir]

Video Format: Mkv


Matroska (.MKV)

Video Detay


MPEG-4, 1050 Kbps, 0,91GB

imdb puanı


7,1 / 10,0 / 101,000

süre


122 dakika

Ses Kodek: AC3


Audio Coding 3 (AC3)

Ses Detay


192 Kbps, 2 Kanal, 168Mb

Editör Puanı


7,3

Genislik Yukseklik


1280-528

sürüm


x264 | 720P




Soldado


Film Detayları

Sicario 2: Soldado"da, Meksika ve Amerika sınırındaki devlet-kartel savaşı konu ediliyor. Uyuşturucu kartelleri, teröristleri ABD sınırından kaçak yollarla geçirmeye başlayınca, federal ajan Matt Graver, gizemli Alejandro’yla iletişime geçer. Ailesi bir kartel patronu tarafından öldürülen Alejandro’nun görevi, en alçakça yollarla savaşı kızıştırmaktır. Alejandro, savaşı alevlendirmek için kartel patronunun kızını kaçırır. Gizli plan ortaya çıktığında ise Graver kızın işinin bitirilmesini emreder. Sivil zayiat olarak görülmeye başlanan genç kızın kaderi, ne için savaştığını sorgulayan Alejandro'nun elinde olacaktır... 

Denis Villeneuve imzalı 2015 yapımı “Sicario” filminin devam halkası olan yapımın yönetmen koltuğunda “ACAB - All Cops Are Bastards” ve “Suburra” filmleriyle tanınan İtalyan yönetmen Stefano Sollima oturuyor. Başrollerine Oscar adayı Josh Brolin ve Oscar ödüllü Benicio Del Toro’yu yerleştiren filmin oyuncu kadrosunda ayrıca "Transformers 5: Son Şövalye"nin yıldızı Isabela Moner, Matthew Modine, Catherine Keener, Manuel Garcia-Rulfo, Jeffrey Donovan, Christopher Heyerdahl ve Ian Bohen de yer alıyor. Dariusz Wolski’nin görüntü yönetmenliğini üstlendiği filmin müzikleri ise Hildur Guðnadóttir’e ait.
 
Soldado Sicario: Day of the Soldado) Filmi Imdb'den 101,000 kişi tarafından oylandı ve 7,1 puan aldı. Bu film için editör puanı 7,3 olarak belirlendi. İyi Seyirler!


Teknik Detaylar


Kod :
General
Complete name                            : Soldado.2018.BRRip.XviD.TR.Filmbol.avi
Format                                   : AVI
Format/Info                              : Audio Video Interleave
File size                                : 1.49 GiB
Duration                                 : 2h 2mn
Overall bit rate                         : 1 738 Kbps

Video
ID                                       : 0
Format                                   : MPEG-4 Visual
Format profile                           : Simple@L5
Format settings, BVOP                    : No
Format settings, QPel                    : No
Format settings, GMC                     : No warppoints
Format settings, Matrix                  : Default (H.263)
Codec ID                                 : XVID
Codec ID/Hint                            : XviD
Duration                                 : 2h 2mn
Bit rate                                 : 1 597 Kbps
Width                                    : 720 pixels
Height                                   : 300 pixels
Display aspect ratio                     : 2.40:1
Frame rate                               : 23.976 fps
Color space                              : YUV
Chroma subsampling                       : 4:2:0
Bit depth                                : 8 bits
Scan type                                : Progressive
Compression mode                         : Lossy
Bits/(Pixel*Frame)                       : 0.308
Stream size                              : 1.37 GiB (92%)
Writing library                          : Lavc58.35.100

Audio
ID                                       : 1
Format                                   : MPEG Audio
Format version                           : Version 1
Format profile                           : Layer 3
Mode                                     : Joint stereo
Mode extension                           : MS Stereo
Codec ID                                 : 55
Codec ID/Hint                            : MP3
Duration                                 : 2h 2mn
Bit rate mode                            : Constant
Bit rate                                 : 128 Kbps
Channel(s)                               : 2 channels
Sampling rate                            : 48.0 KHz
Compression mode                         : Lossy
Stream size                              : 112 MiB (7%)
Alignment                                : Aligned on interleaves
Interleave, duration                     : 24 ms (0.58 video frame)


Film Detayları



Film Fragmanı


Film Detayları

Mini 720P İndir


LetsUpload ile indir


Mega ile indir

f0nB
Şuan Offine!
Şuan Offine!
paylasici Uzman Üye
**
Uzman Üye

  • Konular0
  • Mesajlar6
  • Rep puanı 0
cok iyi
Şuan Offine!
Şuan Offine!
firatcan140 Süper Üye
***
Super Üye

  • Konular0
  • Mesajlar27
  • Rep puanı 0
##############
Şuan Offine!
Şuan Offine!
agresif Uzman Üye
**
Uzman Üye

  • Konular0
  • Mesajlar19
  • Rep puanı 0
İyi Seyirler!
Şuan Offine!
Şuan Offine!
gonenoya Süper Üye
***
Super Üye

  • Konular0
  • Mesajlar42
  • Rep puanı 0
egergeg


Konu ile Alakalı Benzer Konular
Konular Yazar Yorumlar Okunma Son Yorum
Filmin Yayınlanma Tarihi: 2004
Harry Potter ve Azbakan Tutsağı (Prisoner of Azkaban) Türkçe Dublaj m720P İndir BroserBros 16 1,591 17-08-2020, Saat: 22:52
Son Yorum: xzxxx
Filmin Yayınlanma Tarihi: 2016
Lanetli Mesaj (Friend Request) Türkçe Dublaj m720P İndir BroserBros 2 1,555 29-07-2020, Saat: 14:11
Son Yorum: gurcan.d
Filmin Yayınlanma Tarihi: 2019
Shazam! 6 Güç Türkçe Dublaj Bluray m720P İndir BroserBros 3 815 18-05-2020, Saat: 19:03
Son Yorum: problemboy1
Filmin Yayınlanma Tarihi: 2019
The Silence (2019) Türkçe Dublaj BLURAY m720P İndir BroserBros 5 711 12-05-2020, Saat: 21:37
Son Yorum: Nizyy
Filmin Yayınlanma Tarihi: 2019
Godzilla 2: Canavarlar Kralı (King of the Monsters) Türkçe Dublaj BLURAY m720P İndir BroserBros 12 1,308 03-05-2020, Saat: 17:05
Son Yorum: jisiso5307

Hızlı Menü: