Hoşgeldin, Ziyaretçi: Giriş Yap Üye Ol


Konuyu Oyla:
  • Derecelendirme: 0/5 - 0 oy
  • 1
  • 2
  • 3
  • 4
  • 5
Sokak Kedisi Bob (A Street Cat Named Bob) Türkçe Dublaj Brrip-Xvid İndir
#1
Filmin Yayınlanma Tarihi: 2016 

indirme türü


Bulut + Premium

vizyon tarihi


20 Ocak 2017

Boyutlar


1,15GB

diller


[TR]

altyazilar


Yok [Eklenebilir]

Video Format: Avi


Audio Video Interleave (.AVI)

Video Detay


MPEG-4, 1475 Kbps, 1,06 GB

imdb puanı


7,4 / 10,0 / 10,000

süre


103 dakika

Ses Kodek: MP3


MPEG-1 Audio Layer III (MP3)

Ses Detay


128 Kbps, 2 Kanal, 95 Mb

rarsifresi


filmbol.org

Editör Puanı


6,4

Genislik Yukseklik


720x302

sürüm


h263 | Brrip-Xvid




Film Detayları

Londra’da yaşayan evsiz ve rehabilitasyonda olan eski eroin bağımlısı james bowen sokaklarda şarkı söyleyerek hayatta kalmaya çalışmaktadır. sokakta bulduğu hasta sokak kedisini tedavi ettirmek için evine alır ve hayatı bundan sonra değişir. Bob ismini verdiği kedisi iyileştikten sonra her gün onunla londra’da otobüsle seyahat ettikten sonra sokakta şarkı söylerken ona eşlik etmeye başlar ve olaylar gelişir…

Teknik Detaylar

Kod:
General
Format                                   : AVI
Format/Info                              : Audio Video Interleave
File size                                : 1.16 GiB
Duration                                 : 1h 42mn
Overall bit rate                         : 1 612 Kbps

Video
ID                                       : 0
Format                                   : MPEG-4 Visual
Format profile                           : Advanced Simple@L5
Format settings, BVOP                    : 2
Format settings, QPel                    : No
Format settings, GMC                     : No warppoints
Format settings, Matrix                  : Default (H.263)
Muxing mode                              : Packed bitstream
Codec ID                                 : XVID
Codec ID/Hint                            : XviD
Duration                                 : 1h 42mn
Bit rate                                 : 1 475 Kbps
Width                                    : 720 pixels
Height                                   : 302 pixels
Display aspect ratio                     : 2.40:1
Frame rate                               : 23.976 fps
Color space                              : YUV
Chroma subsampling                       : 4:2:0
Bit depth                                : 8 bits
Scan type                                : Progressive
Compression mode                         : Lossy
Bits/(Pixel*Frame)                       : 0.283
Stream size                              : 1.06 GiB (91%)
Writing library                          : XviD 66

Audio
ID                                       : 1
Format                                   : MPEG Audio
Format version                           : Version 1
Format profile                           : Layer 3
Mode                                     : Joint stereo
Mode extension                           : MS Stereo
Codec ID                                 : 55
Codec ID/Hint                            : MP3
Duration                                 : 1h 42mn
Source duration                          : 1h 42mn
Bit rate mode                            : Constant
Bit rate                                 : 128 Kbps
Channel(s)                               : 2 channels
Sampling rate                            : 48.0 KHz
Compression mode                         : Lossy
Stream size                              : 94.1 MiB (8%)
Alignment                                : Aligned on interleaves
Interleave, duration                     : 42 ms (1.00 video frame)



Film Detayları


A Street Cat Named Bob

A Street Cat Named Bob

A Street Cat Named Bob

A Street Cat Named Bob

A Street Cat Named Bob


Film Fragmanı


Film Detayları

Brrip İndir


Turbobit İle İndir

Mega ile indir

Uptobox ile indir

Mypcloud ile indir

 
Alinti
  


Konu ile Alakalı Benzer Konular
Konular Yazar Yorumlar Okunma Son Yorum
Filmin Yayınlanma Tarihi: 2017 Colossal Türkçe Dublaj Brrip-Xvid İndir BroserBros 0 129 24-08-2018, Saat: 16:46
Son Yorum: BroserBros
Filmin Yayınlanma Tarihi: 2016 Kaptan Fantastik (Captain Fantastic) Türkçe Dublaj Brrip-Xvid İndir BroserBros 0 1,318 10-03-2017, Saat: 18:00
Son Yorum: BroserBros
Filmin Yayınlanma Tarihi: 2015 Küçük Kız Kardeşim (Our Little Sister) Türkçe Dublaj Brrip-Xvid İndir BroserBros 0 979 07-03-2017, Saat: 21:22
Son Yorum: BroserBros
Filmin Yayınlanma Tarihi: 2014 5 Kat Yukarı (5 Flights Up) Türkçe Dublaj Brrip-Xvid İndir BroserBros 0 543 27-02-2017, Saat: 16:00
Son Yorum: BroserBros
Filmin Yayınlanma Tarihi: 2016 Katwe Kraliçesi (Quenn Of Katwe) Türkçe Dublaj Brrip-Xvid İndir BroserBros 0 500 20-02-2017, Saat: 22:03
Son Yorum: BroserBros

Hızlı Menü:


Şu anda bu konuyu okuyanlar: 1 Ziyaretçi