Hoşgeldin, Ziyaretçi: Giriş Yap Üye Ol


stats
Adblock'u kapattıysanız tıklayın.
Hoşgeldiniz!
Filmbol'u tercih ettiğiniz için teşekkürler, ancak ablock kullanarak devam edemezsiniz.
Merak etmeyin. Heryerden ardı ardına çıkan reklamlar görmeyeceksiniz :)

Sadece site içi 1 reklam göreceksin ve bu site gezintini etkilemeyecek.
Konuyu Oyla:
  • Derecelendirme: 0/5 - 0 oy
  • 1
  • 2
  • 3
  • 4
  • 5
Soğuk Savaş (Zimna wojna) Türkçe Dublaj BLURAY m720P İndir
#1
Filmin Yayınlanma Tarihi: 2018 

indirme türü


Bulut + Premium

vizyon tarihi


21 Aralık 2018

Boyutlar


0,77

diller


[TR]

altyazilar


Yok [Eklenebilir]

Video Format: Mkv


Matroska (.MKV)

Video Detay


MPEG-4, 1050 Kbps, 0,66GB

imdb puanı


7,6 / 10,0 / 36,000

süre


89 dakika

Ses Kodek: AC3


Audio Coding 3 (AC3)

Ses Detay


128 Kbps, 2 Kanal, 80 Mb

Editör Puanı


6,7

Genislik Yukseklik


968-720

sürüm


x264 | m720P





Soguk Savas


Film Detayları

Soğuk Savaş, birbirinden tamamen farklı farklı karakterlere sahip bir kadın ve bir erkek arasındaki tutkulu ama imkansız bir aşkın öyküsünü anlatıyor. Zula ve Wiktor birbirinden tamamen farklı karakterlere sahip olan iki aşıktır. Her ne kadar birbirleriyle anlaşamayacak tipler olsalar da kader onların yollarını ayrılmayacak şekilde birbirine bağlar. Soğuk Savaş sırasında Polonya’dan Berlin’e, Yugoslavya’dan Paris’in gece kulüplerine uzanan filmde, siyasi görüş, karakter ve kaderin cilvesiyle savrulan Zula ve Wiktor’un tutkulu aşkı ele alınıyor. Romantik dram filmi Soğuk Savaş'ın yönetmenliğini Ida, Aşk Yazım ve Gizemli Kadın filmlerinin yönetmeni Pawel Pawlikowski üstleniyor. Joanna Kulig, Tomasz Kot, Borys Szyc ve Agata Kulesza gibi isimleri kadrosunda bulunduran film, 2018 Cannes Film Festivali'nden En İyi Yönetmen ödülü ile döndü. San Sebastián ve Toronto gibi uluslararası film festivallerinden de adaylıklar kazanan yapım, Polonya Film Festivali'nden ise 4 ödül birden kazanmayı başardı.
 
Soğuk Savaş (Zimna wojna) Filmi Imdb'den 36,000 kişi tarafından oylandı ve 7,6 puan aldı. Bu film için editör puanı 6,7  olarak belirlendi. İyi Seyirler!


Teknik Detaylar


Kod:
General
Complete name                            : Soğuk.Savaş.2018.m720P.BLURAY.TR.Filmbol.mkv
Format                                   : Matroska
Format version                           : Version 4 / Version 2
File size                                : 776 MiB
Duration                                 : 1h 28mn
Overall bit rate                         : 1 232 Kbps
Movie name                               : Cold War (2018) - Filmbol.org
Encoded date                             : UTC 2019-08-08 07:29:30
Writing application                      : mkvmerge v35.0.0 ('All The Love In The World') 64-bit
Writing library                          : libebml v1.3.9 + libmatroska v1.5.2

Video
ID                                       : 1
Format                                   : AVC
Format/Info                              : Advanced Video Codec
Format profile                           : High@L4.1
Format settings, CABAC                   : Yes
Format settings, ReFrames                : 4 frames
Codec ID                                 : V_MPEG4/ISO/AVC
Duration                                 : 1h 28mn
Bit rate                                 : 1 050 Kbps
Width                                    : 968 pixels
Height                                   : 720 pixels
Display aspect ratio                     : 4:3
Frame rate mode                          : Constant
Frame rate                               : 24.000 fps
Color space                              : YUV
Chroma subsampling                       : 4:2:0
Bit depth                                : 8 bits
Scan type                                : Progressive
Bits/(Pixel*Frame)                       : 0.063
Stream size                              : 660 MiB (85%)
Title                                    : m720P - Filmbol.org
Writing library                          : x264 core 157
Default                                  : Yes
Forced                                   : No

Audio
ID                                       : 2
Format                                   : AC-3
Format/Info                              : Audio Coding 3
Mode extension                           : CM (complete main)
Format settings, Endianness              : Big
Codec ID                                 : A_AC3
Duration                                 : 1h 23mn
Bit rate mode                            : Constant
Bit rate                                 : 192 Kbps
Channel(s)                               : 2 channels
Channel positions                        : Front: L R
Sampling rate                            : 48.0 KHz
Frame rate                               : 31.250 fps (1536 spf)
Compression mode                         : Lossy
Stream size                              : 114 MiB (15%)
Title                                    : Türkçe - Filmbol.org
Language                                 : Turkish
Default                                  : Yes
Forced                                   : No



Film Detayları


Soguk Savas

Soguk Savas

Soguk Savas


Film Fragmanı


Film Detayları

Mini 720P İndir


MixDrop ile indir

Tusfiles ile indir

LetsUpload ile indir

Filmbol'da aşağıdaki linkler sadece üyelere sunulur. Ayrıca bu linklerde link kısaltma servisleri kullanılmaz, linke tek tık ile reklamsız erişirsiniz. Konu'ya yorum yapın ve sayfayı yenileyin. Reklamsız linkler (en az 3 en fazla 5 link) açılmış olacaktır. Not: Filmbol'a üye olmak tamamen ücretsizdir, en az 3 link kuralı 01.07.2019 tarihinden sonraki paylaşımlar için geçerlidir. Ancak çoğu film için en az bir premium link her zaman bulunur.

Mega

Dosyaco

Dosyaupload

Mediafire

Google Drive
 
Cevapla
#2
.....
 
Cevapla
  


Konu ile Alakalı Benzer Konular
Konular Yazar Yorumlar Okunma Son Yorum
Filmin Yayınlanma Tarihi: 2019 Operation Brothers (The Red Sea Diving Resort) Türkçe Dublaj BLURAY m720P İndir BroserBros 0 29 04-08-2019, Saat: 20:34
Son Yorum: BroserBros
Filmin Yayınlanma Tarihi: 2018 Sarayın Gözdesi (2018) Türkçe Dublaj BLURAY m720P İndir BroserBros 1 43 31-07-2019, Saat: 19:38
Son Yorum: Ssss

Hızlı Menü:


Şu anda bu konuyu okuyanlar: 1 Ziyaretçi