Hoşgeldin, Ziyaretçi: Giriş Yap Üye Ol


Konuyu Oyla:
  • Derecelendirme: 0/5 - 0 oy
  • 1
  • 2
  • 3
  • 4
  • 5
Title: Soğuk İntikam (Cold Pursuit) Türkçe Dublaj BRRip XviD indir
Gösterim Stili
#1
Filmin Yayınlanma Tarihi: 2019 

vizyon tarihi


22 Mart 2019

imdb puanı


6,2 / 50,000

süre


119 dakika

Editör Puanı


6,8 / 10

Video Format: Avi


Audio Video Interleave (.AVI)

Ses Kodek: MP3


MPEG-1 Audio Layer III (MP3)

sürüm


h263 | BRRip XviD

Boyutlar


1,35 GB



 Soğuk İntikam



Liam Neeson denilince akla ne gelebilirdi? Tabii ki İntikam! Liam Nesson'un yine güzel filmlerinden birisi olan "Soğuk İntikam" filminde uyuşturucu satıcısı hatta baronu olan birinin oğlunu öldürmesinden sonra intikam arayışına giren Nels, aslında sessiz birisi olsa da şimdi sessizliğini bozacaktır...

Soğuk İntikam (2019) (Cold Pursuit) Filmi Imdb'den 50,000 kişi tarafından oylandı ve 6,2 puan aldı. Bu film için editör puanı 6,8 olarak belirlendi. İyi Seyirler!

Teknik Detaylar

Kod:
General
Complete name                            : /root/Desktop/1/Soğuk.İntikam.2019.BRRip.XviD.TR.Filmbol.avi
Format                                   : AVI
Format/Info                              : Audio Video Interleave
File size                                : 1.35 GiB
Duration                                 : 1h 59mn
Overall bit rate                         : 1 625 Kbps

Video
ID                                       : 0
Format                                   : MPEG-4 Visual
Format profile                           : Simple@L5
Format settings, BVOP                    : No
Format settings, QPel                    : No
Format settings, GMC                     : No warppoints
Format settings, Matrix                  : Default (H.263)
Codec ID                                 : XVID
Codec ID/Hint                            : XviD
Duration                                 : 1h 59mn
Bit rate                                 : 1 484 Kbps
Width                                    : 720 pixels
Height                                   : 302 pixels
Display aspect ratio                     : 2.40:1
Frame rate                               : 23.976 fps
Color space                              : YUV
Chroma subsampling                       : 4:2:0
Bit depth                                : 8 bits
Scan type                                : Progressive
Compression mode                         : Lossy
Bits/(Pixel*Frame)                       : 0.285
Stream size                              : 1.23 GiB (91%)
Writing library                          : Lavc58.35.100

Audio
ID                                       : 1
Format                                   : MPEG Audio
Format version                           : Version 1
Format profile                           : Layer 3
Mode                                     : Joint stereo
Mode extension                           : MS Stereo
Codec ID                                 : 55
Codec ID/Hint                            : MP3
Duration                                 : 1h 59mn
Bit rate mode                            : Constant
Bit rate                                 : 128 Kbps
Channel(s)                               : 2 channels
Sampling rate                            : 48.0 KHz
Compression mode                         : Lossy
Stream size                              : 109 MiB (8%)
Alignment                                : Aligned on interleaves
Interleave, duration                     : 24 ms (0.58 video frame)

Film Detayları


 Soğuk İntikam

 Soğuk İntikam

 Soğuk İntikam


Film Fragmanı


Film Detayları


Uptobox ile indir

1Fichier ile indir

LetsUpload ile indir

Bunun için üzgünüz ancak, bu linke sadece premium üyeler erişebilir.

Filmbol Cloud

 
Cevapla
  


Konu ile Alakalı Benzer Konular
Konular Yazar Yorumlar Okunma Son Yorum
Filmin Yayınlanma Tarihi: 2019 Charlie'nin Melekleri (Charlie's Angels) Türkçe Dublaj BRRip XviD indir BroserBros 0 84 19-03-2020, Saat: 22:52
Son Yorum: BroserBros
Filmin Yayınlanma Tarihi: 2019 Hızlı ve Öfkeli: Hobbs ve Shaw (Fast & Furious) Türkçe Dublaj Brrip Xvid İndir BroserBros 13 830 15-03-2020, Saat: 11:44
Son Yorum: fredomike
Filmin Yayınlanma Tarihi: 2019 Örümcek Adam: Evden Uzakta (Spider-Man: Far from Home) Türkçe Dublaj Brrip Xvid İndir BroserBros 12 1,164 14-03-2020, Saat: 22:22
Son Yorum: İgor
Filmin Yayınlanma Tarihi: 2014 Takip 3: Son Karşılaşma (Taken 3) Türkçe Dublaj BRRip XviD indir BroserBros 0 100 03-03-2020, Saat: 22:32
Son Yorum: BroserBros
Filmin Yayınlanma Tarihi: 2013 Ödül Avcısı (Bounty Killer) Türkçe Dublaj BRRip XviD indir BroserBros 1 68 02-03-2020, Saat: 23:35
Son Yorum: filmbolcu

Hızlı Menü:


Browsing: 1 Ziyaretçi