Hoşgeldin, Ziyaretçi: Giriş Yap Üye Ol


Konuyu Oyla:
  • Derecelendirme: 0/5 - 0 oy
  • 1
  • 2
  • 3
  • 4
  • 5
Title: Soğuk İntikam (Cold Pursuit) Türkçe Dublaj BLURAY 720P indir
Gösterim Stili
#1
Filmin Yayınlanma Tarihi: 2019 

vizyon tarihi


22 Mart 2019

imdb puanı


6,2 / 50,000

süre


119 dakika

Editör Puanı


6,8 / 10

Video Format: Mkv


Matroska (.MKV)

Ses Kodek: AC3


Audio Coding 3 (AC3)

sürüm


x264 | 720P | BLURAY

Boyutlar


1,03 GB



 Soğuk İntikam



Liam Neeson denilince akla ne gelebilirdi? Tabii ki İntikam! Liam Nesson'un yine güzel filmlerinden birisi olan "Soğuk İntikam" filminde uyuşturucu satıcısı hatta baronu olan birinin oğlunu öldürmesinden sonra intikam arayışına giren Nels, aslında sessiz birisi olsa da şimdi sessizliğini bozacaktır...

Soğuk İntikam (2019) (Cold Pursuit) Filmi Imdb'den 50,000 kişi tarafından oylandı ve 6,2 puan aldı. Bu film için editör puanı 6,8 olarak belirlendi. İyi Seyirler!

Teknik Detaylar

Kod:
General
Unique ID                                : 228323239823627720508982045539205467877 (0xABC574DA67783868D40A099835094EE5)
Complete name                            : /root/Desktop/1/Soğuk.İntikam.2019.720p.BluRay.x264.TR.Filmbol.mkv
Format                                   : Matroska
Format version                           : Version 4 / Version 2
File size                                : 1.03 GiB
Duration                                 : 1h 59mn
Overall bit rate                         : 1 243 Kbps
Movie name                               : Soğuk İntikam (2019) - Filmbol.org
Encoded date                             : UTC 2020-03-26 14:23:16
Writing application                      : mkvmerge v8.8.0 ('Wind at my back') 64bit
Writing library                          : libebml v1.3.3 + libmatroska v1.4.4

Video
ID                                       : 1
Format                                   : AVC
Format/Info                              : Advanced Video Codec
Format profile                           : High@L4.1
Format settings, CABAC                   : Yes
Format settings, ReFrames                : 4 frames
Codec ID                                 : V_MPEG4/ISO/AVC
Duration                                 : 1h 59mn
Bit rate                                 : 1 050 Kbps
Width                                    : 1 280 pixels
Height                                   : 534 pixels
Display aspect ratio                     : 2.40:1
Original display aspect ratio            : 2.40:1
Frame rate mode                          : Constant
Frame rate                               : 23.976 (24000/1001) fps
Color space                              : YUV
Chroma subsampling                       : 4:2:0
Bit depth                                : 8 bits
Scan type                                : Progressive
Bits/(Pixel*Frame)                       : 0.064
Stream size                              : 893 MiB (84%)
Title                                    : 720P - Filmbol.org
Writing library                          : x264 core 152
Encoding settings                        : cabac=1 / ref=4 / deblock=1:-1:-1 / analyse=0x3:0x133 / me=umh / subme=9 / psy=1 / psy_rd=1.00:0.15 / mixed_ref=1 / me_range=24 / chroma_me=1 / trellis=2 / 8x8dct=1 / cqm=0 / deadzone=21,11 / fast_pskip=0 / chroma_qp_offset=-3 / threads=12 / lookahead_threads=1 / sliced_threads=0 / nr=0 / decimate=1 / interlaced=0 / bluray_compat=0 / constrained_intra=0 / bframes=3 / b_pyramid=2 / b_adapt=2 / b_bias=0 / direct=3 / weightb=1 / open_gop=0 / weightp=2 / keyint=250 / keyint_min=23 / scenecut=40 / intra_refresh=0 / rc_lookahead=60 / rc=2pass / mbtree=1 / bitrate=1050 / ratetol=1.0 / qcomp=0.60 / qpmin=0 / qpmax=69 / qpstep=4 / cplxblur=20.0 / qblur=0.5 / vbv_maxrate=31250 / vbv_bufsize=31250 / nal_hrd=none / filler=0 / ip_ratio=1.40 / aq=1:1.00
Default                                  : Yes
Forced                                   : No

Audio
ID                                       : 2
Format                                   : AC-3
Format/Info                              : Audio Coding 3
Mode extension                           : CM (complete main)
Format settings, Endianness              : Big
Codec ID                                 : A_AC3
Duration                                 : 1h 59mn
Bit rate mode                            : Constant
Bit rate                                 : 192 Kbps
Channel(s)                               : 2 channels
Channel positions                        : Front: L R
Sampling rate                            : 48.0 KHz
Frame rate                               : 31.250 fps (1536 spf)
Compression mode                         : Lossy
Stream size                              : 163 MiB (15%)
Title                                    : Türkçe - Filmbol.org
Language                                 : Turkish
Default                                  : Yes
Forced                                   : No

Film Detayları


 Soğuk İntikam

 Soğuk İntikam

 Soğuk İntikam


Film Fragmanı


Film Detayları

Uptobox ile indir

1Fichier ile indir

LetsUpload ile indir

Bunun için üzgünüz ancak, bu linke sadece premium üyeler erişebilir.

Filmbol Cloud

 
Cevapla
  


Konu ile Alakalı Benzer Konular
Konular Yazar Yorumlar Okunma Son Yorum
Filmin Yayınlanma Tarihi: 2019 Charlie'nin Melekleri (Charlie's Angels) Türkçe Dublaj BLURAY 720P indir BroserBros 0 97 19-03-2020, Saat: 22:53
Son Yorum: BroserBros
Filmin Yayınlanma Tarihi: 2017 Blade Runner 2049: Bıçak Sırtı (Blade Runner 2049) Türkçe Dublaj BLURAY 720P İndir BroserBros 2 150 14-03-2020, Saat: 11:56
Son Yorum: vago
Filmin Yayınlanma Tarihi: 2009 96 Saat (Taken) Türkçe Dublaj BLURAY 720P indir BroserBros 1 97 07-03-2020, Saat: 17:05
Son Yorum: vago
Filmin Yayınlanma Tarihi: 2014 X-Men 7: Geçmiş Günler Gelecek (Days of Future Past) Türkçe Dublaj 720P İndir BroserBros 7 2,204 07-03-2020, Saat: 13:54
Son Yorum: Koçeren
Filmin Yayınlanma Tarihi: 2013 X-Men 6: Wolverine (Wolverine) Türkçe Dublaj 720P İndir BroserBros 4 2,177 07-03-2020, Saat: 13:05
Son Yorum: Koçeren

Hızlı Menü:


Browsing: 2 Ziyaretçi