Hoşgeldin, Ziyaretçi: Giriş Yap Üye Ol


Konuyu Oyla:
  • Derecelendirme: 0/5 - 0 oy
  • 1
  • 2
  • 3
  • 4
  • 5
Title: Soğuk İntikam (Cold Pursuit) Türkçe Dublaj BLURAY 1080P indir
Gösterim Stili
#1
Filmin Yayınlanma Tarihi: 2019 

vizyon tarihi


22 Mart 2019

imdb puanı


6,2 / 50,000

süre


119 dakika

Editör Puanı


6,8 / 10

Video Format: Mkv


Matroska (.MKV)

Ses Kodek: AC3


Audio Coding 3 (AC3)

sürüm


x264 | 1080P | BLURAY

Boyutlar


1,95 GB



 Soğuk İntikam



Liam Neeson denilince akla ne gelebilirdi? Tabii ki İntikam! Liam Nesson'un yine güzel filmlerinden birisi olan "Soğuk İntikam" filminde uyuşturucu satıcısı hatta baronu olan birinin oğlunu öldürmesinden sonra intikam arayışına giren Nels, aslında sessiz birisi olsa da şimdi sessizliğini bozacaktır...

Soğuk İntikam (2019) (Cold Pursuit) Filmi Imdb'den 50,000 kişi tarafından oylandı ve 6,2 puan aldı. Bu film için editör puanı 6,8 olarak belirlendi. İyi Seyirler!

Teknik Detaylar

Kod:
General
Unique ID                                : 289273443956700832247555780221403218953 (0xD9A009EDB283B74DEDFB29E213694409)
Complete name                            : /root/Desktop/1/Soğuk.İntikam.2019.1080p.BluRay.x264.TR.Filmbol.mkv
Format                                   : Matroska
Format version                           : Version 4 / Version 2
File size                                : 1.95 GiB
Duration                                 : 1h 59mn
Overall bit rate                         : 2 342 Kbps
Movie name                               : Soğuk İntikam (2019) - Filmbol.org
Encoded date                             : UTC 2020-03-26 14:22:07
Writing application                      : mkvmerge v8.8.0 ('Wind at my back') 64bit
Writing library                          : libebml v1.3.3 + libmatroska v1.4.4

Video
ID                                       : 1
Format                                   : AVC
Format/Info                              : Advanced Video Codec
Format profile                           : High@L4.1
Format settings, CABAC                   : Yes
Format settings, ReFrames                : 4 frames
Codec ID                                 : V_MPEG4/ISO/AVC
Duration                                 : 1h 59mn
Bit rate                                 : 2 150 Kbps
Width                                    : 1 920 pixels
Height                                   : 800 pixels
Display aspect ratio                     : 2.40:1
Frame rate mode                          : Constant
Frame rate                               : 23.976 (24000/1001) fps
Color space                              : YUV
Chroma subsampling                       : 4:2:0
Bit depth                                : 8 bits
Scan type                                : Progressive
Bits/(Pixel*Frame)                       : 0.058
Stream size                              : 1.79 GiB (92%)
Title                                    : 1080P - Filmbol.org
Writing library                          : x264 core 152
Encoding settings                        : cabac=1 / ref=4 / deblock=1:-1:-1 / analyse=0x3:0x133 / me=umh / subme=9 / psy=1 / psy_rd=1.00:0.15 / mixed_ref=1 / me_range=24 / chroma_me=1 / trellis=2 / 8x8dct=1 / cqm=0 / deadzone=21,11 / fast_pskip=0 / chroma_qp_offset=-3 / threads=12 / lookahead_threads=1 / sliced_threads=0 / nr=0 / decimate=1 / interlaced=0 / bluray_compat=0 / constrained_intra=0 / bframes=3 / b_pyramid=2 / b_adapt=2 / b_bias=0 / direct=3 / weightb=1 / open_gop=0 / weightp=2 / keyint=250 / keyint_min=23 / scenecut=40 / intra_refresh=0 / rc_lookahead=60 / rc=2pass / mbtree=1 / bitrate=2150 / ratetol=1.0 / qcomp=0.60 / qpmin=0 / qpmax=69 / qpstep=4 / cplxblur=20.0 / qblur=0.5 / vbv_maxrate=31250 / vbv_bufsize=31250 / nal_hrd=none / filler=0 / ip_ratio=1.40 / aq=1:1.00
Default                                  : Yes
Forced                                   : No

Audio
ID                                       : 2
Format                                   : AC-3
Format/Info                              : Audio Coding 3
Mode extension                           : CM (complete main)
Format settings, Endianness              : Big
Codec ID                                 : A_AC3
Duration                                 : 1h 59mn
Bit rate mode                            : Constant
Bit rate                                 : 192 Kbps
Channel(s)                               : 2 channels
Channel positions                        : Front: L R
Sampling rate                            : 48.0 KHz
Frame rate                               : 31.250 fps (1536 spf)
Compression mode                         : Lossy
Stream size                              : 163 MiB (8%)
Title                                    : Türkçe - Filmbol.org
Language                                 : Turkish
Default                                  : Yes
Forced                                   : No

Film Detayları


 Soğuk İntikam

 Soğuk İntikam

 Soğuk İntikam


Film Fragmanı


Film Detayları

Uptobox ile indir

1Fichier ile indir

LetsUpload ile indir

Bunun için üzgünüz ancak, bu linke sadece premium üyeler erişebilir.

Filmbol Cloud

 
Cevapla
  


Konu ile Alakalı Benzer Konular
Konular Yazar Yorumlar Okunma Son Yorum
Filmin Yayınlanma Tarihi: 2019 Charlie'nin Melekleri (Charlie's Angels) Türkçe Dublaj BLURAY 1080P indir BroserBros 1 108 19-03-2020, Saat: 23:22
Son Yorum: Murat94
Filmin Yayınlanma Tarihi: 2018 Ocean's Eight (Ocean's 8) Türkçe Dublaj BLURAY 1080P İndir BroserBros 4 191 13-03-2020, Saat: 04:07
Son Yorum: murassai
Filmin Yayınlanma Tarihi: 2019 Asfaltın Kralları (Ford v Ferrari) Türkçe Dublaj BLURAY 1080P indir BroserBros 6 133 12-03-2020, Saat: 02:24
Son Yorum: LORD 4
Filmin Yayınlanma Tarihi: 2014 Maymunlar Cehennemi: Şafak Vakti Türkçe Dublaj 1080P İndir BroserBros 11 4,024 09-03-2020, Saat: 19:47
Son Yorum: buraknur
Filmin Yayınlanma Tarihi: 2011 Maymunlar Cehennemi: Başlangıç (Planet of the Apes) Türkçe Dublaj 1080P İndir BroserBros 8 5,318 09-03-2020, Saat: 19:14
Son Yorum: buraknur

Hızlı Menü:


Browsing: 2 Ziyaretçi