Hoşgeldin, Ziyaretçi: Giriş Yap Üye Ol


stats
Adblock'u kapattıysanız tıklayın.
Hoşgeldiniz!
Filmbol'u tercih ettiğiniz için teşekkürler, ancak ablock kullanarak devam edemezsiniz.
Merak etmeyin. Heryerden ardı ardına çıkan reklamlar görmeyeceksiniz :)

Sadece site içi 1 reklam göreceksin ve bu site gezintini etkilemeyecek.
Konuyu Oyla:
  • Derecelendirme: 0/5 - 0 oy
  • 1
  • 2
  • 3
  • 4
  • 5
Title: Smosh: Film (Smosh: The Movie) Türkçe Dublaj m1080P İndir
Gösterim Stili
#1
Filmin Yayınlanma Tarihi: 2015 

indirme türü


Bulut + Premium

vizyon tarihi


24 Haziran 2015

Boyutlar


1,43GB

diller


[TR]

altyazilar


Yok [Eklenebilir]

Video Format: Mkv


Matroska (.MKV)

Video Detay


MPEG-4, 2017 Kbps, 1,18 GB

imdb puanı


3,8 / 10,0 / 5,000

süre


84 dakika

Ses Kodek: AC3


Audio Coding 3 (AC3)

Ses Detay


384 Kbps, 6 Kanal, 229 Mb

rarsifresi


filmbol.org

Editör Puanı


4,5

Genislik Yukseklik


1916x1076

sürüm


x264 | m1080P



Film Detayları

Anthony genç ve çılgın biridir, hayat doludur ve zekidir. Bir gece gittiği partide içkinin dozunu fazla kaçırınca olanlar olur, önce kendini küçük düşürücü şaklabanlıklar yapar ve sonra da bunları arkadaşları videoya alırlar. Video gösterim sitelerinde Anthony'nin videosu popülerleşince insanların içerisine çıkacak hali kalmaz.Durumu toparlamak amacıyla plan yapan bu çocuk bazı şeyleri daha zora ve çıkmaza sokacaktır. Olaylar gün geçtikçe amacından sapmaya başlar ve ortaya komik ama bir o kadar da macera dolu bir yapıtın çıkmasına sebebiyet verir. Yönetmen Alex Winter...


Teknik Detaylar
Kod:
General
Format                                   : Matroska
Format version                           : Version 4 / Version 2
File size                                : 1.43 GiB
Duration                                 : 1h 23mn
Overall bit rate                         : 2 450 Kbps
Movie name                               : Smosh - Filmbol.org

Video
ID                                       : 1
Format                                   : AVC
Format/Info                              : Advanced Video Codec
Format profile                           : Main@L4.0
Format settings, CABAC                   : Yes
Format settings, ReFrames                : 2 frames
Codec ID                                 : V_MPEG4/ISO/AVC
Duration                                 : 1h 23mn
Bit rate                                 : 2 017 Kbps
Width                                    : 1 916 pixels
Height                                   : 1 076 pixels
Display aspect ratio                     : 16:9
Frame rate mode                          : Constant
Frame rate                               : 23.976 fps
Color space                              : YUV
Chroma subsampling                       : 4:2:0
Bit depth                                : 8 bits
Scan type                                : Progressive
Bits/(Pixel*Frame)                       : 0.041
Stream size                              : 1.18 GiB (82%)
Title                                    : m1080P - Filmbol.org
Language                                 : English
Default                                  : Yes
Forced                                   : No

Audio
ID                                       : 2
Format                                   : AC-3
Format/Info                              : Audio Coding 3
Mode extension                           : CM (complete main)
Format settings, Endianness              : Big
Codec ID                                 : A_AC3
Duration                                 : 1h 23mn
Bit rate mode                            : Constant
Bit rate                                 : 384 Kbps
Channel(s)                               : 6 channels
Channel positions                        : Front: L C R, Side: L R, LFE
Sampling rate                            : 48.0 KHz
Bit depth                                : 16 bits
Compression mode                         : Lossy
Stream size                              : 229 MiB (16%)
Title                                    : Türkçe - Filmbol.org
Language                                 : Turkish
Default                                  : Yes
Forced                                   : No




Film Detayları


Smosh

Smosh

Smosh

Smosh

Smosh


Film Fragmanı


Film Detayları

Mini 1080P İndir


Turbobit İle İndir

Mega ile indir

Uptobox ile indir

Cloud Ru ile indir

 
Cevapla
  


Konu ile Alakalı Benzer Konular
Konular Yazar Yorumlar Okunma Son Yorum
Filmin Yayınlanma Tarihi: 2016 Absolutely Fabulous: The Movie Türkçe Dublaj m1080P İndir BroserBros 0 669 15-01-2017, Saat: 17:49
Son Yorum: BroserBros

Hızlı Menü:


Browsing: 1 Ziyaretçi