Filmbol Forum Film İndir BRRip XviD v Siyah Giyen Adamlar: Global Tehdit (Men in Black) Türkçe Dublaj Brrip Xvid İndir
Filmbol'da moderatör olmak ister misiniz? Bizimle iletişime geçmek için tıklayın!
Siyah Giyen Adamlar: Global Tehdit (Men in Black) Türkçe Dublaj Brrip Xvid İndir
BroserBros
Siyah Giyen Adamlar: Global Tehdit (Men in Black) Türkçe Dublaj Brrip Xvid İndir
1
390
  • Derecelendirme: 0/5 - 0 oy
  • 1
  • 2
  • 3
  • 4
  • 5
Konuyu Okuyanlar:1 Ziyaretçi
Şuan Online!
Filmin Yayınlanma Tarihi: 2019 
Şuan Online!
BroserBros Kurucu Admin
*******
Admin

indirme türü


Bulut + Premium

Vizyon Tarihi


14 Haziran 2019

Boyutlar


1,39

diller


[TR]

altyazilar


KISIM [Eklenebilir]

Video Format: Avi


Audio Video Interleave (.AVI)

Video Detay


MPEG-4, 1596 Kbps, 1,28GB

imdb puanı


5,6 / 10,0 / 71,000

süre


114 dakika

Ses Kodek: MP3


MPEG-1 Audio Layer III (MP3)

Ses Detay


128 Kbps, 2 Kanal, 105Mb

Editör Puanı


6,5

Genislik Yukseklik


720-360

sürüm


h263 | Brrip Xvid




Siyah Giyen Adamlar Global Tehdit


Film Detayları

Siyah Giyen Adamlar: Global Tehdit, dünyayı kötülüklerden arındırmaya çalışan ekibin, bu güne kadar karşılarına çıkan en büyük tehdit olan köstebeği ortaya çıkarmak için kurdukları takımla birlikte verdikleri mücadeleyi konu ediyor. Siyah Giyen Adamlar ne kadar genişlemişlerse kötü adamlar da bir o kadar artmıştır. Evren, herhangi birinin şekline girebilen bir uzaylı istilası ile karşı karşıya kalınca, ödüllü ajan H ile kararlı çaylak M birlikte hareket etmeye karar verir. Güçlerini birleştiren ikili, dünyayı kurtarmak için zorlu bir mücadeleye girişir. Yönetmen koltuğunda Barry Sonnenfeld'in oturduğu, Tommy Lee Jones ve Will Smith'le özdeşleşmiş Men In Black'in spin-off olarak izleyeceğimiz filmin yapımcılığını Laurie MacDonald ve Walker Parkes üstleniyor. Filmin senaryosunu ise Matt Holloway ve Art Marcum kaleme alıyor.

Siyah Giyen Adamlar: Global Tehdit (Men in Black: International) Filmi Imdb'den 71,000 kişi tarafından oylandı ve 5,6 puan aldı. Bu film için editör puanı 6,5 olarak belirlendi. İyi Seyirler!


Teknik Detaylar

Kod :
General
Complete name                            : Siyah.Giyen.Adamlar.Global.Tehdit.2019.BRRip.XviD.TR.Filmbol.avi
Format                                   : AVI
Format/Info                              : Audio Video Interleave
File size                                : 1.39 GiB
Duration                                 : 1h 54mn
Overall bit rate                         : 1 737 Kbps

Video
ID                                       : 0
Format                                   : MPEG-4 Visual
Format profile                           : Simple@L5
Format settings, BVOP                    : No
Format settings, QPel                    : No
Format settings, GMC                     : No warppoints
Format settings, Matrix                  : Default (H.263)
Codec ID                                 : XVID
Codec ID/Hint                            : XviD
Duration                                 : 1h 54mn
Bit rate                                 : 1 596 Kbps
Width                                    : 720 pixels
Height                                   : 360 pixels
Display aspect ratio                     : 2.000
Frame rate                               : 23.976 fps
Color space                              : YUV
Chroma subsampling                       : 4:2:0
Bit depth                                : 8 bits
Scan type                                : Progressive
Compression mode                         : Lossy
Bits/(Pixel*Frame)                       : 0.257
Stream size                              : 1.28 GiB (92%)
Writing library                          : Lavc58.35.100

Audio
ID                                       : 1
Format                                   : MPEG Audio
Format version                           : Version 1
Format profile                           : Layer 3
Mode                                     : Joint stereo
Mode extension                           : MS Stereo
Codec ID                                 : 55
Codec ID/Hint                            : MP3
Duration                                 : 1h 54mn
Bit rate mode                            : Constant
Bit rate                                 : 128 Kbps
Channel(s)                               : 2 channels
Sampling rate                            : 48.0 KHz
Compression mode                         : Lossy
Stream size                              : 105 MiB (7%)
Alignment                                : Aligned on interleaves
Interleave, duration                     : 24 ms (0.58 video frame)



Film Detayları


Siyah Giyen Adamlar 

Siyah Giyen Adamlar 

Siyah Giyen Adamlar 


Film Fragmanı


Film Detayları

Brrip İndir


Uptobox ile indir

LetsUpload ile indir

Mega ile indir

MediaFire ile indir

Şuan Online!
Şuan Online!
gece_yagmuru Uzman Üye
**
Uzman Üye

  • Konular0
  • Mesajlar11
  • Rep puanı 0
teşekkürler


Konu ile Alakalı Benzer Konular
Konular Yazar Yorumlar Okunma Son Yorum
Filmin Yayınlanma Tarihi: 2020
Deathstroke Şövalyeler ve Ejderhalar (Deathstroke Knights & Dragons: The Movie) - 2020 - TR - BRRip XviD BroserBros 0 36 23-11-2020, Saat: 18:30
Son Yorum: BroserBros
Filmin Yayınlanma Tarihi: 2019
15 Dakika Savaş (L'intervention) - 2019 - TR - BRRip XviD BroserBros 0 35 23-11-2020, Saat: 17:42
Son Yorum: BroserBros
Filmin Yayınlanma Tarihi: 2020
Sürprizli Gece (The Sleepover) - 2020 - TR - BRRip XviD BroserBros 0 37 23-11-2020, Saat: 16:18
Son Yorum: BroserBros
Filmin Yayınlanma Tarihi: 2020
Feride (Feride) - 2020 - TR - BRRip XviD BroserBros 0 37 22-11-2020, Saat: 17:58
Son Yorum: BroserBros
Filmin Yayınlanma Tarihi: 2019
Gel Babacığına (Come to Daddy) - 2019 - TR - BRRip XviD BroserBros 0 32 22-11-2020, Saat: 17:43
Son Yorum: BroserBros

Hızlı Menü: