Filmbol Forum Film İndir 1080P v Siyah Giyen Adamlar: Global Tehdit (Men in Black) Türkçe Dublaj BLURAY m1080P İndir
Filmbol'da moderatör olmak ister misiniz? Bizimle iletişime geçmek için tıklayın!
Siyah Giyen Adamlar: Global Tehdit (Men in Black) Türkçe Dublaj BLURAY m1080P İndir
BroserBros
Siyah Giyen Adamlar: Global Tehdit (Men in Black) Türkçe Dublaj BLURAY m1080P İndir
15
964
  • Derecelendirme: 0/5 - 0 oy
  • 1
  • 2
  • 3
  • 4
  • 5
Konuyu Okuyanlar:1 Ziyaretçi
Şuan Online!
Filmin Yayınlanma Tarihi: 2019 
Şuan Online!
BroserBros Kurucu Admin
*******
Admin

indirme türü


Bulut + Premium

Vizyon Tarihi


14 Haziran 2019

Boyutlar


1,99

diller


[TR]

altyazilar


KISIM [Eklenebilir]

Video Format: Mkv


Matroska (.MKV)

Video Detay


MPEG-4, 2100 Kbps, 1,68GB

imdb puanı


5,6 / 10,0 / 71,000

süre


114 dakika

Ses Kodek: AC3


Audio Coding 3 (AC3)

Ses Detay


384 Kbps, 6 Kanal, 315Mb

Editör Puanı


6,5

Genislik Yukseklik


1920-944

sürüm


x264 | 1080P




Siyah Giyen Adamlar Global Tehdit


Film Detayları

Siyah Giyen Adamlar: Global Tehdit, dünyayı kötülüklerden arındırmaya çalışan ekibin, bu güne kadar karşılarına çıkan en büyük tehdit olan köstebeği ortaya çıkarmak için kurdukları takımla birlikte verdikleri mücadeleyi konu ediyor. Siyah Giyen Adamlar ne kadar genişlemişlerse kötü adamlar da bir o kadar artmıştır. Evren, herhangi birinin şekline girebilen bir uzaylı istilası ile karşı karşıya kalınca, ödüllü ajan H ile kararlı çaylak M birlikte hareket etmeye karar verir. Güçlerini birleştiren ikili, dünyayı kurtarmak için zorlu bir mücadeleye girişir. Yönetmen koltuğunda Barry Sonnenfeld'in oturduğu, Tommy Lee Jones ve Will Smith'le özdeşleşmiş Men In Black'in spin-off olarak izleyeceğimiz filmin yapımcılığını Laurie MacDonald ve Walker Parkes üstleniyor. Filmin senaryosunu ise Matt Holloway ve Art Marcum kaleme alıyor.

Siyah Giyen Adamlar: Global Tehdit (Men in Black: International) Filmi Imdb'den 71,000 kişi tarafından oylandı ve 5,6 puan aldı. Bu film için editör puanı 6,5 olarak belirlendi. İyi Seyirler!


Teknik Detaylar

Kod :
General
Complete name                            : Siyah.Giyen.Adamlar.Global.Tehdit.2019.m1080p.BluRay.x264.TR.Filmbol.mkv
Format                                   : Matroska
Format version                           : Version 4 / Version 2
File size                                : 1.99 GiB
Duration                                 : 1h 54mn
Overall bit rate                         : 2 485 Kbps
Movie name                               : Siyah Giyen Adamlar: Global Tehdit (2019) - Filmbol.org
Encoded date                             : UTC 2019-10-28 21:34:44
Writing application                      : mkvmerge v35.0.0 ('All The Love In The World') 64-bit
Writing library                          : libebml v1.3.9 + libmatroska v1.5.2
Cover                                    : Yes
Attachments                              : cover.jpg

Video
ID                                       : 1
Format                                   : AVC
Format/Info                              : Advanced Video Codec
Format profile                           : High@L4.1
Format settings, CABAC                   : Yes
Format settings, ReFrames                : 4 frames
Codec ID                                 : V_MPEG4/ISO/AVC
Duration                                 : 1h 54mn
Bit rate                                 : 2 100 Kbps
Width                                    : 1 920 pixels
Height                                   : 944 pixels
Display aspect ratio                     : 2.034
Frame rate mode                          : Constant
Frame rate                               : 23.976 (24000/1001) fps
Color space                              : YUV
Chroma subsampling                       : 4:2:0
Bit depth                                : 8 bits
Scan type                                : Progressive
Bits/(Pixel*Frame)                       : 0.048
Stream size                              : 1.68 GiB (84%)
Title                                    : 1080P - Filmbol.org
Writing library                          : x264 core 152
Default                                  : Yes
Forced                                   : No

Audio
ID                                       : 2
Format                                   : AC-3
Format/Info                              : Audio Coding 3
Mode extension                           : CM (complete main)
Format settings, Endianness              : Big
Codec ID                                 : A_AC3
Duration                                 : 1h 54mn
Bit rate mode                            : Constant
Bit rate                                 : 384 Kbps
Channel(s)                               : 6 channels
Channel positions                        : Front: L C R, Side: L R, LFE
Sampling rate                            : 48.0 KHz
Frame rate                               : 31.250 fps (1536 spf)
Compression mode                         : Lossy
Stream size                              : 315 MiB (15%)
Title                                    : Türkçe - Filmbol.org
Language                                 : Turkish
Default                                  : Yes
Forced                                   : No

Text
ID                                       : 3
Format                                   : UTF-8
Codec ID                                 : S_TEXT/UTF8
Codec ID/Info                            : UTF-8 Plain Text
Duration                                 : 1h 30mn
Bit rate                                 : 0 bps
Count of elements                        : 4
Stream size                              : 98.0 Bytes (0%)
Title                                    : KISIM
Language                                 : Turkish
Default                                  : Yes
Forced                                   : Yes



Film Detayları


Siyah Giyen Adamlar 

Siyah Giyen Adamlar 

Siyah Giyen Adamlar 


Film Fragmanı


Film Detayları

Mini 1080P İndir


Uptobox ile indir

Mega ile indir

MediaFire ile indir

Google Drive linki şuan da gizli. Kullanıma açmak için konuya yorum yapın ve ardından sayfayı yenileyin. Ayrıca bu linki açtığınızda reklamsız olarak erişebileceğinizi unutmayın.

Google Drive

Şuan Offine!
Şuan Offine!
Aspirin46 Süper Üye
***
Super Üye

  • Konular0
  • Mesajlar54
  • Rep puanı 0
süper
Şuan Offine!
Şuan Offine!
Hellenger28 Uzman Üye
**
Uzman Üye

  • Konular0
  • Mesajlar15
  • Rep puanı 0
Güzel film Wink
Şuan Offine!
Şuan Offine!
eagle4791 Uzman Üye
**
Uzman Üye

  • Konular0
  • Mesajlar10
  • Rep puanı 0
teşekkürler
Şuan Offine!
Şuan Offine!
eagle4791 Uzman Üye
**
Uzman Üye

  • Konular0
  • Mesajlar10
  • Rep puanı 0
teşekkürler
Şuan Offine!
Şuan Offine!
emrelp Yeni Üye
*
Üye

  • Konular0
  • Mesajlar1
  • Rep puanı 0
çolk güzel olmuş sağoluyn
Şuan Offine!
Şuan Offine!
ycanb Uzman Üye
**
Uzman Üye

  • Konular0
  • Mesajlar7
  • Rep puanı 0
teşekkür ederiz paylaşan kullanıcı
Şuan Offine!
Şuan Offine!
Forsaken Uzman Üye
**
Uzman Üye

  • Konular0
  • Mesajlar9
  • Rep puanı 0
adagfsgsfdf
Şuan Offine!
Şuan Offine!
hakan Yeni Üye
*
Üye

  • Konular0
  • Mesajlar1
  • Rep puanı 0
super
Big Grin
Şuan Offine!
Şuan Offine!
53mert09 Yeni Üye
*
Üye

  • Konular0
  • Mesajlar5
  • Rep puanı 0
.......


Konu ile Alakalı Benzer Konular
Konular Yazar Yorumlar Okunma Son Yorum
Filmin Yayınlanma Tarihi: 2019
San Francisco'daki Son Siyah Adam (The Last Black Man in San Francisco) - 2019 - TR+ORG - 1080P BroserBros 0 36 22-11-2020, Saat: 17:30
Son Yorum: BroserBros
Filmin Yayınlanma Tarihi: 2019
Ralph ve İnternet (Ralph Breaks the Internet) Türkçe Dublaj BLURAY m1080P İndir BroserBros 15 1,097 21-11-2020, Saat: 18:10
Son Yorum: miyaavc
Filmin Yayınlanma Tarihi: 2018
Venom: Zehirli Öfke (2018) Türkçe Dublaj Bluray m1080P İndir DRMOV 43 4,147 19-11-2020, Saat: 22:42
Son Yorum: Cyberboi84
Filmin Yayınlanma Tarihi: 2007
Harry Potter ve Zümrüdüanka Yoldaşlığı (2007) Türkçe Dublaj BLURAY m1080P İndir BroserBros 16 1,216 17-11-2020, Saat: 18:33
Son Yorum: bllsr
Filmin Yayınlanma Tarihi: 2005
Harry Potter ve Ateş Kadehi (Goblet of Fire) Türkçe Dublaj BLURAY 1080P İndir BroserBros 27 2,372 17-11-2020, Saat: 12:17
Son Yorum: bllsr

Hızlı Menü: