Filmbol Forum Film İndir 720P v Şirinler (The Smurfs) - 2011 - TR+ORG - 720P
Moderatör Alımları Başladı! Başvuru yapmak için tıklayın.
Filmbol Premium'da %50'e varan indirim fırsatı!
Şirinler (The Smurfs) - 2011 - TR+ORG - 720P
BroserBros
Şirinler (The Smurfs) - 2011 - TR+ORG - 720P
0
108
  • Derecelendirme: 0/5 - 0 oy
  • 1
  • 2
  • 3
  • 4
  • 5
Konuyu Okuyanlar:1 Ziyaretçi
Şuan Online!
Filmin Yayınlanma Tarihi: 2011 
Şuan Online!
BroserBros Kurucu Admin
*******
Admin

Vizyon Tarihi


05 Ağustos 2011

imdb puanı


5,4 / 85,000

süre


103 dakika

Editör Puanı


6,0 / 10

Video Format: Mkv


Matroska (.MKV)

Ses Kodek: AC3


Audio Coding 3 (AC3)

sürüm


x264 | 720P | BluRay

Boyutlar


0,74 GB



 Şirinler



Kötü büyücü Gargamel, Mavi Ay kutlamaları sırasında Şirinler köyüne saldırır ve Şirinleri şelaledeki gizli bir geçide kovalar. Büyülü geçitten geçen mavi yaratıklar kendilerini bir anda 2011 New York'unda, Central Park’ın tam ortasında bulurlar. Sadece üç adet elma boyutunda olan Şirinler, Big Apple (Büyük Elma) olarak da bilinen New York'ta sıkışıp kalırlar. Fakat Gargamel ve korkunç kedisi Azman da Şirinler’in peşinden New York'a gelmiştir! Şirinler şimdi Gargamel'e yakalanmadan köylerine dönmenin yollarını arayacaklar...

Şirinler (2011) (The Smurfs) Filmi Imdb'den 85,000 kişi tarafından oylandı ve 5,4 puan aldı. Bu film için editör puanı 6,0 olarak belirlendi. İyi Seyirler!

Teknik Detaylar

Kod :
General
Unique ID                                : 88625038814523961015032593655659558786 (0x42AC8FC582F5C8A15A9180E27400F782)
Complete name                            : /root/Desktop/5/Şirinler.2011.720p.BluRay.x264.TR.ENG.Filmbol.mkv
Format                                  : Matroska
Format version                          : Version 4 / Version 2
File size                                : 742 MiB
Duration                                : 1h 42mn
Overall bit rate                        : 1 008 Kbps
Movie name                              : Şirinler - The Smurfs - 2011 | Filmbol.org
Encoded date                            : UTC 2020-06-10 12:43:34
Writing application                      : mkvmerge v8.8.0 ('Wind at my back') 64bit
Writing library                          : libebml v1.3.3 + libmatroska v1.4.4

Video
ID                                      : 1
Format                                  : AVC
Format/Info                              : Advanced Video Codec
Format profile                          : High@L3.1
Format settings, CABAC                  : Yes
Format settings, ReFrames                : 5 frames
Codec ID                                : V_MPEG4/ISO/AVC
Duration                                : 1h 42mn
Bit rate                                : 782 Kbps
Width                                    : 1 280 pixels
Height                                  : 720 pixels
Display aspect ratio                    : 16:9
Frame rate mode                          : Constant
Frame rate                              : 23.976 (24000/1001) fps
Color space                              : YUV
Chroma subsampling                      : 4:2:0
Bit depth                                : 8 bits
Scan type                                : Progressive
Bits/(Pixel*Frame)                      : 0.035
Stream size                              : 575 MiB (78%)
Title                                    : 720P - Filmbol.org
Writing library                          : x264 core 116 r2074 2641b9e
Encoding settings                        : cabac=1 / ref=5 / deblock=1:-2:-1 / analyse=0x3:0x113 / me=umh / subme=8 / psy=1 / psy_rd=1.00:0.00 / mixed_ref=1 / me_range=16 / chroma_me=1 / trellis=1 / 8x8dct=1 / cqm=0 / deadzone=21,11 / fast_pskip=1 / chroma_qp_offset=-2 / threads=9 / sliced_threads=0 / nr=0 / decimate=0 / interlaced=0 / bluray_compat=0 / constrained_intra=0 / bframes=3 / b_pyramid=2 / b_adapt=2 / b_bias=0 / direct=3 / weightb=1 / open_gop=0 / weightp=2 / keyint=250 / keyint_min=23 / scenecut=40 / intra_refresh=0 / rc_lookahead=50 / rc=2pass / mbtree=1 / bitrate=782 / ratetol=1.0 / qcomp=0.60 / qpmin=10 / qpmax=51 / qpstep=4 / cplxblur=20.0 / qblur=0.5 / ip_ratio=1.40 / aq=1:1.00
Default                                  : Yes
Forced                                  : No

Audio #1
ID                                      : 2
Format                                  : AAC
Format/Info                              : Advanced Audio Codec
Format profile                          : HE-AAC / LC
Codec ID                                : A_AAC
Duration                                : 1h 42mn
Bit rate                                : 32.0 Kbps
Channel(s)                              : 2 channels
Channel positions                        : Front: L R
Sampling rate                            : 48.0 KHz / 24.0 KHz
Frame rate                              : 23.438 fps (1024 spf)
Compression mode                        : Lossy
Stream size                              : 23.6 MiB (3%)
Title                                    : İngilizce - Filmbol.org
Default                                  : No
Forced                                  : No

Audio #2
ID                                      : 3
Format                                  : AC-3
Format/Info                              : Audio Coding 3
Mode extension                          : CM (complete main)
Format settings, Endianness              : Big
Codec ID                                : A_AC3
Duration                                : 1h 42mn
Bit rate mode                            : Constant
Bit rate                                : 192 Kbps
Channel(s)                              : 6 channels
Channel positions                        : Front: L C R, Side: L R, LFE
Sampling rate                            : 44.1 KHz
Frame rate                              : 28.711 fps (1536 spf)
Compression mode                        : Lossy
Delay relative to video                  : 250ms
Stream size                              : 141 MiB (19%)
Title                                    : Türkçe - Filmbol.org
Language                                : Turkish
Default                                  : Yes
Forced                                  : Yes

Text
ID                                      : 4
Format                                  : UTF-8
Codec ID                                : S_TEXT/UTF8
Codec ID/Info                            : UTF-8 Plain Text
Duration                                : 1h 35mn
Bit rate                                : 71 bps
Count of elements                        : 1564
Stream size                              : 50.3 KiB (0%)
Title                                    : Türkçe Altyazı
Default                                  : Yes
Forced                                  : No

Film Detayları


 Şirinler

 Şirinler

 Şirinler


Film Fragmanı


Film Detayları

Uptobox ile indir

1Fichier ile indir

1Fichier'den İndiremiyor musun? Tıklayın!


Mega ile indir

Bunun için üzgünüz ancak, bu linke sadece premium üyeler erişebilir.

Filmbol Cloud



Konu ile Alakalı Benzer Konular
Konular Yazar Yorumlar Okunma Son Yorum
Filmin Yayınlanma Tarihi: 2020
The Hunt (Av) - 2020 - TR+ORG - 720P BroserBros 0 301 18-09-2020, Saat: 19:28
Son Yorum: BroserBros
Filmin Yayınlanma Tarihi: 2018
Gözbebeğim (Pupille) - 2018 - TR+ORG - 720P BroserBros 0 296 18-09-2020, Saat: 13:02
Son Yorum: BroserBros
  Umut Vadisi (Hope Gap) - 2019 - TR+ORG - 720P BroserBros 0 290 18-09-2020, Saat: 12:51
Son Yorum: BroserBros
Filmin Yayınlanma Tarihi: 2020
Malibu Rescue: Yeni Dalga (Malibu Rescue: The Next Wave) - 2020 - TR+ORG - 720P BroserBros 0 142 13-09-2020, Saat: 20:54
Son Yorum: BroserBros
Filmin Yayınlanma Tarihi: 2020
Masallardan Geriye Kalan (Yerli) - 2020 - TR+ORG - 720P BroserBros 0 389 01-09-2020, Saat: 21:49
Son Yorum: BroserBros

Hızlı Menü: